<?xml version="1.0" standalone="no"?>
<!DOCTYPE svg PUBLIC "-//W3C//DTD SVG 1.1//EN" "http://www.w3.org/Graphics/SVG/1.1/DTD/svg11.dtd" >
<!--
2013-9-30: Created.
-->
<svg>
<metadata>
Created by iconfont
</metadata>
<defs>

<font id="iconfont" horiz-adv-x="1024" >
  <font-face
    font-family="iconfont"
    font-weight="500"
    font-stretch="normal"
    units-per-em="1024"
    ascent="896"
    descent="-128"
  />
    <missing-glyph />
    
    <glyph glyph-name="Warehouse" unicode="&#59357;" d="M758.07048793-158.3876205900001c19.71877494 115.06006761 179.5018358 115.06006761 199.2206107 0h96.56101155c44.51970846 0 45.33285267 10.77417662 45.33285267 53.26102027V186.38600756999995c0 119.32908028 12.8070397 109.77462255-87.00655212 109.77462087H719.24279747c-43.50327606 0-46.1459986-8.53802535-46.14599856-50.61829773v-292.93561158c0-18.29576959-2.64272253-83.34739887 3.04929549-94.93471975 5.69201804-11.58732086 16.26290649-16.05962002 32.93238593-16.05961997h48.9920076zM1155.69856512-157.98104934999992c22.56478393 106.11546762 144.73987157 110.58776677 187.43000171 34.76196425 7.52159465-13.21361267 6.91173519-21.95492451 12.19718025-34.76196425 64.64505466-7.52159465 56.31031579 21.54835154 56.31031579 74.40280058 0 32.52581465 4.26901269 98.59387297-6.70844875 124.6145237-11.38403436 27.44365606-47.16243098 70.74364564-66.47463293 96.56101153-4.87887212 6.30187578-9.75774422 13.62018395-14.23004338 18.905629-10.36760367 11.79060735-17.48262534 24.80093353-41.06384003 25.81736424l-131.32297407-0.40657296c-20.53192085-2.84600901-24.59764704-18.70234254-24.39436056-40.45398056v-262.6459482c0-20.73520564 6.91173519-36.59154084 28.25680197-36.79482733z m57.12346002 170.15066455v113.23049097c18.49905606 1.01643237 47.77228874 1.21971719 66.27134648 0.20328648 13.82347043-0.81314591 22.9713569-18.90562901 33.13567237-33.13567406 11.99389381-16.66947943 50.82158422-65.25491409 51.43144367-80.50138989-41.47041296-0.20328647-111.1976262-1.01643237-150.83846252 0.2032865zM843.04417694-108.78575523999996c-31.10280929-7.92816761-58.9530383-38.21783099-48.99200761-78.87509804 7.52159465-30.69623634 38.42111747-57.73331945 78.26524029-48.78872113 30.69623634 6.91173519 58.54646534 39.0309769 49.39858056 78.46852506-7.31830817 30.49294987-39.0309769 59.35961126-78.67181324 49.19529411zM1250.42999836-107.56603637c-34.76196422-3.45586845-63.62862394-31.50938224-60.1727572-70.54035916 3.04929549-34.76196422 33.13567243-63.22205099 71.35350507-59.76618423 34.15210479 3.25258195 62.40890508 33.33895889 58.74975184 71.76007803-3.04929549 33.33895889-33.13567243 62.20561861-69.93049971 58.54646536zM166.71053326 749.89573494v-987.36174175h225.44454789v807.04676004h792.00357073V408.57797352h225.44454791V747.04972591c0 12.19718027-23.58121466 18.49905606-32.93238596 22.97135523l-58.54646534 27.85022899c-8.13145408 3.65915326-12.19718027 6.50516226-20.32863435 10.16431719-15.24647578 6.70844875-24.80093353 11.58732086-40.0474076 18.29576957-71.76007633 31.91595521-163.23892929 80.09481692-234.59243438 110.79105494l-217.51638029 102.65959916c-38.62440396 18.70234254-29.88309212 18.90562901-59.35961126 5.69201803L551.73485551 947.28676732c-13.0103262-6.70844875-25.61407778-11.79060735-39.43754984-19.10891548l-309.80837749-155.51404816c-8.33474054-4.26901269-35.77839493-11.79060735-35.77839492-22.76806874zM458.83299889 115.84564841999997h138.64128225v-119.93893972H458.83299889v119.93893972zM458.83299889 276.03528223h138.64128225V158.53577858999995H458.83299889v117.49950364z"  horiz-adv-x="1565" />

    
    <glyph glyph-name="chewei" unicode="&#59358;" d="M674.304 612.352c0 148.992-123.392 271.872-283.136 271.872H0v-1000.448h143.872v456.704h251.904c154.624 0 278.528 122.88 278.528 271.872zM370.688 483.84H138.752V745.472h231.424c67.072-5.12 128.512-61.44 128.512-128 5.632-66.56-61.44-133.632-128-133.632zM1018.88 130.048c-5.12 10.24-15.36 20.48-15.36 20.48l-51.712 133.632c-10.24 25.6-40.96 40.96-56.832 40.96h-267.776c-15.36 0-46.08-15.36-56.832-40.96l-51.712-133.632s-10.24-10.24-15.36-20.48-10.24-15.36-10.24-76.8c0-56.32 10.24-76.8 25.6-87.04l10.24-5.12v-56.32c0-15.36 5.12-20.48 20.48-20.48h35.84c15.36 0 25.6 0 25.6 15.36v51.2h283.136v-51.2c0-15.36 10.24-15.36 25.6-15.36h35.84c15.36 0 20.48 5.12 20.48 20.48v56.32l10.24 5.12c15.36 5.12 25.6 25.6 25.6 87.04 17.408 61.44 12.288 71.68 7.168 76.8z m-427.008 35.84c0 5.12 15.36 66.56 20.48 87.04 5.12 5.12 20.48 30.72 40.96 25.6h221.184c20.48 0 35.84-20.48 40.96-25.6 5.12-20.48 20.48-81.92 20.48-87.04 0-10.24-5.12-10.24-5.12-10.24h-334.336c0.512 5.12-9.728 0-4.608 10.24z m5.12-143.36c-20.48 0-40.96 20.48-40.96 40.96s20.48 40.96 40.96 40.96 40.96-20.48 40.96-40.96c0-25.6-20.48-40.96-40.96-40.96z m334.336 0c-20.48 0-40.96 20.48-40.96 40.96s20.48 40.96 40.96 40.96 40.96-20.48 40.96-40.96c0-25.6-20.48-40.96-40.96-40.96z"  horiz-adv-x="1024" />

    
    <glyph glyph-name="chewei1" unicode="&#59359;" d="M535.637858 281.6v-189.046154a47.261538 47.261538 0 0 0-94.523076 0V596.676923a47.261538 47.261538 0 0 0 47.261538 47.261539h196.923077C785.352074 643.938462 866.468628 562.821908 866.468628 462.769231S785.352074 281.6 685.299397 281.6H535.637858z m457.649231-409.6h-0.567138a31.507692 31.507692 0 1 0 0.582892 63.015385h144.557292a31.507692 31.507692 0 0 1 30.656985 38.785969l-198.073108 834.953846A31.507692 31.507692 0 0 1 939.787028 832.984615H315.068258a31.507692 31.507692 0 0 1-30.609723-24.040369l-203.760246-834.953846A31.507692 31.507692 0 0 1 111.308012-64.984615h148.023139v-0.787693a31.523446 31.523446 0 0 0 0-61.44V-128H63.022474a63.015385 63.015385 0 0 0-61.187939 78.107569l221.404554 897.969231A63.015385 63.015385 0 0 0 284.427028 896h689.545846a63.015385 63.015385 0 0 0 61.376984-48.836923l207.572677-897.969231A63.015385 63.015385 0 0 0 1181.545551-128H993.287089zM535.637858 549.415385v-173.292308h149.661539a86.646154 86.646154 0 0 1 0 173.292308H535.637858z"  horiz-adv-x="1244" />

    
    <glyph glyph-name="changfang" unicode="&#59360;" d="M594.534 574.464c-44.441 0-82.534 38.093-82.534 88.883 0 50.79 38.093 82.535 82.534 82.535 12.698 0 25.396 0 38.093-6.35 25.395 25.396 57.14 38.094 95.232 31.745 25.395 38.093 63.488 57.139 101.581 57.139 69.837 0 126.976-57.14 126.976-126.976s-57.14-126.976-126.976-126.976c-25.395 0-44.442 6.349-63.488 19.046-31.744-19.046-82.534-19.046-114.278 0-12.698-12.697-31.744-19.046-57.14-19.046z m-368.23-317.44h-63.488c-19.046 0-31.744 12.698-31.744 31.744V542.72c0 19.046 12.698 31.744 31.744 31.744h63.488c19.046 0 31.744-12.698 31.744-31.744v-253.952c0-19.046-12.698-31.744-31.744-31.744z m190.464 0H353.28c-19.046 0-31.744 12.698-31.744 31.744V542.72c0 19.046 12.698 31.744 31.744 31.744h63.488c19.046 0 31.744-12.698 31.744-31.744v-253.952c0-19.046-12.698-31.744-31.744-31.744z m0 0M956.416 479.232v-519.424c0-11.162-9.062-20.224-20.224-20.224H87.808c-11.162 0-20.224 9.062-20.224 20.224V276.07c0 24.525 19.917 44.442 44.442 44.442h330.137l146.023 152.371c12.697 6.349 25.395 12.698 38.092 6.349 12.698-6.349 25.396-19.046 25.396-38.093v-107.93l82.534 139.674c6.349 12.698 25.395 19.047 38.093 12.698 12.697-6.349 25.395-19.047 25.395-38.093V333.21l95.232 171.417c6.349 12.698 25.395 19.047 38.093 12.698 12.697-6.349 25.395-19.047 25.395-38.093z m-634.88-380.928v63.488c0 19.046-12.698 31.744-31.744 31.744h-63.488c-19.046 0-31.744-12.698-31.744-31.744v-63.488c0-19.046 12.698-31.744 31.744-31.744h63.488c19.046 0 31.744 12.698 31.744 31.744z m253.952 0v63.488c0 19.046-12.698 31.744-31.744 31.744h-63.488c-19.046 0-31.744-12.698-31.744-31.744v-63.488c0-19.046 12.698-31.744 31.744-31.744h63.488c19.046 0 31.744 12.698 31.744 31.744z m253.952 0v63.488c0 19.046-12.698 31.744-31.744 31.744h-63.488c-19.046 0-31.744-12.698-31.744-31.744v-63.488c0-19.046 12.698-31.744 31.744-31.744h63.488c19.046 0 31.744 12.698 31.744 31.744z m0 0"  horiz-adv-x="1024" />

    
    <glyph glyph-name="tudi" unicode="&#59361;" d="M135.312 464.315h275.825c34.218 0 62.535 26.736 63.133 59.603l4.317 240.576c0.28 13.484-4.915 26.385-14.645 36.319-10.869 11.107-26.518 17.477-42.934 17.477H169.634a66.232 66.232 0 0 1-41.106-14.412c-12.184-9.716-19.812-22.863-21.478-37.015L78.282 526.16c-1.892-15.867 2.791-31.06 13.196-42.779 10.757-12.113 26.73-19.066 43.834-19.066z m-8.17 56.003l28.776 240.774c0.076 0.647 0.857 2.369 3.283 4.302a17.058 17.058 0 0 0 10.433 3.684h251.374c3.79 0 6.552-1.449 7.762-2.686 0.436-0.442 0.59-0.759 0.605-1.012l-4.317-240.563c-0.098-5.342-5.843-11.29-13.934-11.29h-275.82c-3.529 0-5.947 1.308-7.03 2.524-0.702 0.787-1.419 1.834-1.132 4.267z m474.425-56.003h275.89c17.146 0 33.154 6.975 43.918 19.137 10.382 11.733 15.036 26.912 13.11 42.708L905.71 766.878c-3.466 28.831-30.954 51.412-62.568 51.412H591.696c-16.358 0-32-6.37-42.904-17.477-9.744-9.927-14.976-22.785-14.728-36.199l4.317-240.632c0.596-32.903 28.942-59.667 63.186-59.667z m-17.653 302.021c1.237 1.265 4.022 2.742 7.781 2.742h251.447c7.782 0 13.385-5.315 13.716-8.042l28.78-240.83c0.289-2.341-0.429-3.368-1.103-4.134-1.09-1.23-3.516-2.545-7.071-2.545h-275.89c-8.12 0-13.891 5.983-13.983 11.34L583.26 765.45s0.113 0.33 0.654 0.886zM415.391 406.357H128.886c-16.781 0-33.252-6.489-46.379-18.279-13.082-11.747-21.4-27.48-23.432-44.318L21.231 27.025c-2.475-20.854 3.508-41.162 16.422-55.701 11.81-13.302 28.156-20.627 46.034-20.627h318.676c38.181 0 69.825 33.246 70.535 74.1l5.743 316.714a63.39 63.39 0 0 1-18.187 45.95 62.685 62.685 0 0 1-45.063 18.896z m8.302-380.696c-0.238-13.716-10.207-25.744-21.336-25.744H83.696c-3.826 0-6.764 1.299-9.246 4.09-3.53 3.979-5.16 10.413-4.352 17.18l37.837 316.695c0.598 4.985 3.248 9.807 7.452 13.589 4.078 3.664 8.865 5.683 13.49 5.683H415.39v-0.01c3.888 0 7.234-1.396 9.94-4.155 2.805-2.854 4.182-6.41 4.107-10.586l-5.744-316.742zM711.624-24.657a24.49 24.49 0 1 1 48.98 0 24.49 24.49 0 1 1-48.98 0zM858.962-24.657a24.49 24.49 0 1 1 48.98 0 24.49 24.49 0 1 1-48.98 0zM1002.773 27.032l-37.782 316.742c-2.033 16.817-10.349 32.551-23.433 44.298-13.125 11.796-29.597 18.285-46.379 18.285H608.675a62.702 62.702 0 0 1-45.035-18.861c-12.07-12.27-18.56-28.587-18.279-45.98l5.743-316.713c0.72-40.861 32.362-74.108 70.536-74.108h116.206V-0.1H621.64c-11.122 0-21.091 12.036-21.337 25.79l-5.737 316.616c-0.07 4.21 1.33 7.804 4.155 10.67a13.497 13.497 0 0 0 9.955 4.163h286.506v0.005c4.627 0 9.413-2.015 13.498-5.688 4.204-3.773 6.854-8.597 7.445-13.51l37.781-316.722c0.808-6.811-0.823-13.252-4.35-17.23-2.482-2.792-5.414-4.093-9.247-4.093h-59.691l-0.813-49.203c14.192-0.86 60.504 0 60.504 0 17.879 0 34.232 7.325 46.043 20.627 12.91 14.546 18.895 34.847 16.421 55.708z"  horiz-adv-x="1024" />

    
    <glyph glyph-name="shangpu" unicode="&#59356;" d="M143.22301 779.421538h923.175385c31.507692 0 56.713846 25.206154 56.713846 56.713847S1097.906087 892.849231 1066.398395 892.849231H143.22301c-31.507692 0-56.713846-25.206154-56.713846-56.713846-3.150769-31.507692 22.055385-56.713846 56.713846-56.713847zM1082.152241 272.147692c-22.055385 0-40.96-18.904615-40.96-37.80923v-283.569231H165.278395v280.418461c0 22.055385-18.904615 37.809231-40.96 37.809231-22.055385 0-40.96-18.904615-40.96-37.809231v-321.378461c0-22.055385 18.904615-37.809231 40.96-37.809231h957.833846c22.055385 0 40.96 18.904615 40.96 37.809231V231.187692c0 22.055385-18.904615 40.96-40.96 40.96zM1189.278395 533.661538L1107.358395 738.461538h-1008.246154l-81.92-204.8c-9.452308-18.904615-15.753846-37.809231-15.753846-59.864615 0-78.769231 66.166154-141.784615 151.236923-141.784615s151.236923 63.015385 151.236923 141.784615c0-78.769231 66.166154-141.784615 151.236923-141.784615 81.92 0 151.236923 63.015385 151.236923 141.784615 0-78.769231 66.166154-141.784615 151.236923-141.784615 81.92 0 151.236923 63.015385 151.236923 141.784615 0-78.769231 66.166154-141.784615 151.236923-141.784615 81.92 0 151.236923 63.015385 151.236923 141.784615-6.301538 22.055385-12.603077 40.96-22.055384 59.864615z"  horiz-adv-x="1221" />

    
    <glyph glyph-name="bieshu" unicode="&#59352;" d="M1122.8184 94.059l-65.137-5.704-0.257 386.578 65.631 3.761L830.1474 779.552l-573.223-7.783L-0.0376 466.081l35.886-31.64 25.963 29.486-0.07-337.742-60.399 12.417 0.434-61.622 499.762-109.768 0-0.007 0.04 0.002 0.322-0.031 0.007 0.052 620.337 58.181L1122.8184 94.059zM983.9654 467.205l0.257-385.03-447.74-42.667L536.4824 441.39 983.9654 467.205zM113.3994 510.344l147.964 170.137L461.9404 447.576l0-407.973L113.4174 115.069 113.3994 510.344zM182.4844 423.214l0-160.587 156.777-32.965L339.2614 405.017 182.4844 423.214zM734.0674 391.24l-143.055-10.849 0-271.696 143.055 18.236L734.0674 391.24z"  horiz-adv-x="1124" />

    
    <glyph glyph-name="icon-1" unicode="&#59353;" d="M506.942615 440.594544h304.406397v-120.052681H506.942615zM441.798683 187.966134h437.10254v-143.65381h-437.10254zM154.852305 29.140169H102.472248V454.442145h318.253998v-52.380057H154.852305zM931.401693 48.647225V182.186265h48.045156V333.546566h-48.045156V513.685795H390.261524v-465.03857H0.842897v-52.500471H1023.518344v52.500471h-92.116651z m-4.334901 185.919097H443.484478v46.479774h483.582314v-46.479774zM442.64158 461.305738H879.021637v-127.759172H442.64158V461.305738z m0-279.119473H879.021637v-133.53904H442.64158V182.186265zM803.883349 726.095955L791.119473 777.031044 85.855127 600.142992l12.763876-50.814676L232.880527 582.923801v-159.187206H285.380997V596.169332l358.713076 89.9492v-172.914393h52.500471V699.24365zM571.484478 316.447789h-27.93603v92.116651h226.980244v-90.310442h-28.056444V380.62841h-170.98777zM643.010348 389.298213h27.93603V332.462841H643.010348zM531.747883 158.585136v-135.104421h28.056444v107.168391H643.010348v-118.126058h27.93603v118.126058h83.326435v-104.398871h27.93603V158.585136zM232.037629 350.043274h85.373472v-85.373472h-85.373472z"  horiz-adv-x="1024" />

    
    <glyph glyph-name="bieshu1" unicode="&#59354;" d="M554.666667 588.8h84.522666v-77.738667H554.666667zM1055.274667-2.858667h-45.482667v333.013334h-91.050667V693.461333l81.92-13.653333h9.130667c22.741333 0 40.96 18.218667 45.482667 36.437333 4.565333 22.741333-13.653333 50.048-36.394667 50.048L442.752 859.477333h-15.914667c-4.522667 0-7.68-0.426667-13.354666-2.773333-5.632-2.389333-4.693333-2.005333-9.386667-5.034667l-6.101333-5.12s-3.669333-2.517333-6.314667-7.765333c-2.688-5.290667-3.541333-6.613333-3.541333-11.136V705.28l-338.645334-41.728c-18.218667 0-42.837333-20.224-40.96-44.672 1.877333-24.448 22.741333-30.08 45.525334-30.08h4.522666l40.96 4.565333v-596.224H54.058667c-27.306667 0-45.525333-13.226667-45.525334-40.533333 0-27.306667 13.653333-40.96 40.96-40.96h1005.781334c27.306667 0 42.069333 12.373333 42.069333 40.96 0 28.672-14.762667 40.533333-42.069333 40.533333z m-198.997334 331.434667h-392.618666V761.728l392.618666-48.042667V328.533333zM384.768 631.466667v-301.653334H171.093333V606.976L384.768 631.466667z m0.298667-460.928v-173.397334H172.8v273.066667h472.832v-273.066667h-176.085333v173.397334H385.066667z m341.290666-173.397334v273.066667h216.021334v-273.066667h-216.021334zM258.858667 511.061333h39.338666v-81.536h-39.338666z"  horiz-adv-x="1152" />

    
    <glyph glyph-name="bieshu2" unicode="&#59355;" d="M938.666667 39.253333h-25.6V406.186667l-278.186667 238.933333c-27.306667 23.893333-69.973333 3.413333-69.973333-32.426667V807.253333c0 32.426667-39.253333 51.2-63.146667 29.013334l-395.946667-341.333334v-455.68H85.333333c-27.306667 0-51.2-22.186667-51.2-51.2 0-27.306667 22.186667-51.2 51.2-51.2h853.333334c27.306667 0 51.2 22.186667 51.2 51.2 0 27.306667-22.186667 51.2-51.2 51.2zM663.893333 377.173333h95.573334V128h-95.573334V377.173333z m-286.72 0h95.573334V281.6h-95.573334v95.573333z m0-151.893333h95.573334v-95.573333h-95.573334v95.573333z m-153.6 151.893333h95.573334V281.6h-95.573334v95.573333z m0-151.893333h95.573334v-95.573333h-95.573334v95.573333z"  horiz-adv-x="1024" />

    
    <glyph glyph-name="xiugaifangyuan" unicode="&#59351;" d="M518.592942 244.392752l-0.14401-0.112007c-0.192013-0.192013-0.240016-0.464031-0.416027-0.656044a39.218607 39.218607 0 0 1-9.872656-18.497229L413.257941 41.691279a27.361819 27.361819 0 0 1-3.072205-12.592837 39.490625 39.490625 0 0 1 39.474624-39.490625h0.336023a27.201808 27.201808 0 0 1 12.224812 2.992199l187.372455 95.622356a38.994592 38.994592 0 0 1 13.968928 6.544435 27.201808 27.201808 0 0 1 4.800319 3.648243c0.192013 0.176012 0.432029 0.288019 0.624042 0.46403l327.045738 327.013737a39.586631 39.586631 0 0 1 0 55.843711l-92.118123 92.102122c-14.928992 14.928992-40.978724 14.89699-55.859713 0l-329.301888-329.269886s-0.096006-0.176012-0.160011-0.176012z m27.697841-64.820308l56.099729-53.843579-114.087583-58.22787z m329.62191 344.726914l70.404679-70.40468-297.043744-297.251758-71.892778 69.012587zM974.127221-73.180356H235.294112V423.188637a27.409822 27.409822 0 0 1-27.409822 27.409822h-93.446212L532.25785 832.623851l202.237443-159.93063a27.409822 27.409822 0 1 1 33.986259 42.994858L547.970895 890.099672a27.441824 27.441824 0 0 1-35.490359-1.264084L25.344156 443.429982a27.409822 27.409822 0 0 1 18.49723-47.635166h136.649083v-468.975172H153.032644a27.409822 27.409822 0 0 1 0-54.819644h821.094577a27.409822 27.409822 0 0 1 0 54.819644z"  horiz-adv-x="1024" />

    
    <glyph glyph-name="dizhi" unicode="&#59350;" d="M506.05806933 831.8002062200001c-163.75261867 0-296.96060682-130.83898311-296.96060681-291.62063644 0-155.20866608 266.12470518-430.78997333 277.4260243-442.44081778a27.1853037 27.1853037 0 0 1 19.53458251-8.21384533h0.6019603c7.57304889 0 14.73831822 3.47583525 19.70934519 9.08765866l92.15817955 103.61484326c122.43095703 147.30550992 184.51053985 260.97891555 184.51053985 337.93274311 0 160.78165333-133.22740622 291.64005452-296.98002489 291.64005452z m0-424.16841007c-74.56540445 0-134.97503289 59.3222163-134.97503288 132.54777363s60.40962845 132.58660978 134.97503288 132.58660977c74.58482252 0 134.99445097-59.36105245 134.99445097-132.58660977 0-73.24497541-60.40962845-132.54777363-134.99445097-132.54777363zM214.37917867-8.614039700000035c0-30.91357392 130.58654815-55.94347141 291.67889066-55.94347141 161.09234252 0 291.67889067 25.02989748 291.67889067 55.94347141 0 30.87473778-130.58654815 55.90463525-291.67889067 55.90463525-161.09234252 0-291.67889067-25.02989748-291.67889066-55.90463525zM376.59776948-8.614039700000035c-0.01941808-12.25280475 57.90469689-22.19485867 129.40204563-22.19485867s129.47971792 9.92263585 129.51855407 22.15602252v0.03883615c0.01941808 12.21396859-57.90469689 22.15602252-129.4214637 22.15602252s-129.46029985-9.90321778-129.499136-22.15602252z"  horiz-adv-x="1024" />

    
    <glyph glyph-name="liaotianjilu" unicode="&#59349;" d="M695.04 701.68H98.08c-18.32 0-33.16 14.85-33.16 33.16 0 18.32 14.85 33.16 33.16 33.16h596.96c18.32 0 33.16-14.85 33.16-33.16 0-18.31-14.84-33.16-33.16-33.16zM298.97 502.7H96.19c-17.27 0-31.27 14-31.27 31.27v3.79c0 17.27 14 31.27 31.27 31.27h202.78c17.27 0 31.27-14 31.27-31.27v-3.79c-0.01-17.28-14.01-31.27-31.27-31.27zM230.74 303.71H98.08c-18.32 0-33.16 14.85-33.16 33.16 0 18.32 14.85 33.16 33.16 33.16h132.66c18.32 0 33.16-14.85 33.16-33.16 0.01-18.31-14.84-33.16-33.16-33.16zM230.74 104.72H98.08c-18.32 0-33.16 14.85-33.16 33.16 0 18.32 14.85 33.16 33.16 33.16h132.66c18.32 0 33.16-14.85 33.16-33.16 0.01-18.31-14.84-33.16-33.16-33.16zM728.2 204.22H595.55c-18.32 0-33.16 14.85-33.16 33.16 0 18.32 14.85 33.16 33.16 33.16H728.2c18.32 0 33.16-14.85 33.16-33.16 0.01-18.31-14.84-33.16-33.16-33.16zM562.38 237.38V370.04c0 18.32 14.85 33.16 33.16 33.16 18.32 0 33.16-14.85 33.16-33.16v-132.66c0-18.32-14.85-33.16-33.16-33.16-18.31 0-33.16 14.85-33.16 33.16zM960.35 270.55c0-183.16-148.48-331.64-331.64-331.64S297.07 87.38 297.07 270.55s148.48 331.64 331.64 331.64 331.64-148.48 331.64-331.64zM628.71 535.86c-146.53 0-265.31-118.79-265.31-265.31s118.79-265.31 265.31-265.31 265.31 118.79 265.31 265.31-118.78 265.31-265.31 265.31z"  horiz-adv-x="1024" />

    
    <glyph glyph-name="shezhi1" unicode="&#59348;" d="M881 384c0 52.4 32.9 96.8 79 114.5-11 43.2-28 83.9-50.2 121.3C864.6 599.7 810 607.9 773 645c-37 37-45.2 91.7-25.1 136.8C710.4 804 669.7 821 626.5 832c-17.8-46.1-62.2-79-114.5-79-52.4 0-96.8 32.9-114.5 79-43.2-11-83.9-28-121.3-50.2 20.1-45.2 11.9-99.8-25.1-136.8-37-37-91.7-45.2-136.8-25.2C92 582.4 75 541.7 64 498.5c46.1-17.8 79-62.2 79-114.5 0-52.4-32.9-96.8-79-114.5 11-43.2 28-83.9 50.2-121.3C159.4 168.3 214 160.1 251 123c37-37 45.2-91.7 25.1-136.8C313.6-36 354.3-53 397.5-64c17.8 46.1 62.2 79 114.5 79 52.4 0 96.8-32.9 114.5-79 43.2 11 83.9 28 121.3 50.2-20.1 45.2-11.9 99.8 25.1 136.8 37 37 91.7 45.2 136.8 25.2C932 185.6 949 226.3 960 269.5c-46.1 17.7-79 62.1-79 114.5zM512 261c-67.9 0-123 55.1-123 123s55.1 123 123 123 123-55.1 123-123-55.1-123-123-123z"  horiz-adv-x="1024" />

    
    <glyph glyph-name="zhuanfafasong-3" unicode="&#59346;" d="M128 800h341.333a32 32 0 0 0 3.072-63.85l-3.072-0.15H160v-704h704V341.333a32 32 0 0 0 63.85 3.072l0.15-3.072V0a32 32 0 0 0-28.928-31.85L896-32H128a32 32 0 0 0-31.85 28.928L96 0V768a32 32 0 0 0 28.928 31.85L128 800z m778.667 10.667a32 32 0 0 0 32-32v-224a32 32 0 1 0-64 0V704.34l-276.843-258.41a32 32 0 0 0-42.88-0.704l-2.347 2.282a32 32 0 0 0-0.704 42.88l2.283 2.347 272.043 253.93H682.667a32 32 0 0 0 0 64h224z"  horiz-adv-x="1024" />

    
    <glyph glyph-name="fenxiangdaozhuanfafasongzhiyuanquanxianxing" unicode="&#59347;" d="M414.322 320.142l249.173-152.576a142.222 142.222 0 1 0-29.468-48.64L384.512 271.701a170.667 170.667 0 1 0 0.398 224.143l249.458 152.32a142.222 142.222 0 1 0 29.81-48.441L414.549 447.26c7.823-19.54 12.118-40.903 12.118-63.26 0-22.585-4.38-44.117-12.345-63.858zM768 611.556a85.333 85.333 0 1 1 0 170.666 85.333 85.333 0 0 1 0-170.666z m0-625.778a85.333 85.333 0 1 1 0 170.666 85.333 85.333 0 0 1 0-170.666zM256 270.222a113.778 113.778 0 1 1 0 227.556 113.778 113.778 0 0 1 0-227.556z"  horiz-adv-x="1024" />

    
    <glyph glyph-name="goout" unicode="&#59970;" d="M544.063098 779.238484c0.319991-31.29512 13.439622-61.118281 36.542972-82.557678a130.876319 130.876319 0 0 1 176.507036 0c23.039352 21.439397 36.286979 51.262558 36.606971 82.557678a114.428782 114.428782 0 0 1-36.606971 82.557678 130.876319 130.876319 0 0 1-176.443037 0c-23.039352-21.503395-36.286979-51.326556-36.606971-82.557678z m38.014931-120.444613c14.911581 3.839892 30.463143 4.479874 46.078704 1.919946 52.926511-10.175714 87.549538-58.430357 77.309826-107.900965-2.687924-14.911581-1.535957-24.19132 3.391904-27.903215 4.99186-3.775894 57.022396-34.175039 156.027612-91.38943 27.199235-14.59159 38.014931-46.334697 24.447312-71.677984l-0.70398-1.919946a56.958398 56.958398 0 0 0-73.917921-21.631391l-139.068088 73.59793-13.567619-65.278164 138.428107-152.315717 3.327906-3.839892c4.799865-5.119856 8.127771-10.815696 9.59973-17.151517l69.758038-224.633682c9.535732-31.103125-9.471734-63.486214-42.686799-73.661929-0.70398 0-2.047942-0.639982-2.687925-0.639982-32.639082-6.911806-64.446187 12.79964-71.933976 43.198785l-57.022397 181.498896-6.079829 5.759838-115.324756 113.532807-67.838092-137.724127a92.989385 92.989385 0 0 0-35.263008-38.078929h-0.703981L333.125031-58.881943999999976c-1.40796-0.639982-2.047942-1.279964-3.391905-1.919946-27.839217-13.311626-61.758263-3.839892-76.669843 22.207375a57.918371 57.918371 0 0 0 20.351427 79.357769c64.638182 41.790825 100.733167 66.046142 108.284955 72.829951 11.327681 10.111716 68.222081 178.554978 71.038002 192.890575 2.623926 14.2076 5.823836 24.959298 8.575759 37.630942l31.167123 149.115806-61.694265-15.871554-3.391904-0.639982-61.054283-78.717786-0.639982-1.279964a55.358443 55.358443 0 0 0-73.98192-9.471733 48.958623 48.958623 0 0 0-10.879694 71.038002l89.59748 114.300785a51.262558 51.262558 0 0 0 15.551563 13.311626c5.439847 3.839892 11.519676 7.615786 18.367484 9.535731l170.875194 61.502271 6.847807 1.919946zM140.618445 419.18461a19.711446 19.711446 0 0 0 25.087295 7.679784l249.59298-115.580749c8.89575-4.415876 12.927636-14.59159 8.191769-22.847357l-74.621901-137.084145c-4.735867-8.255768-16.255543-11.39168-25.087294-7.551787l-249.592981 115.452753c-8.831752 4.479874-12.927636 14.59159-8.191769 22.847357L140.618445 419.18461z"  horiz-adv-x="1024" />

    
    <glyph glyph-name="yidongbangong" unicode="&#59344;" d="M746.890516 895.998831H278.698706c-46.44735 0-84.164496-37.717146-84.164496-84.097888v-855.741122c0-46.380743 37.717146-84.159821 84.164496-84.159821h468.19181c46.440339 0 84.159821 37.779079 84.159822 84.159821V811.900943c0.001169 46.380743-37.718314 84.097889-84.159822 84.097888zM530.930438-69.890565h-31.629023c-36.531072 7.60022-64.518907 38.411262-64.518907 77.133357 0 44.436283 35.96199 80.335172 80.332835 80.335171 44.368507 0 80.334003-35.898889 80.334003-80.335171 0-38.722095-27.991341-69.533136-64.518908-77.133357z m242.009296 189.605869H252.650656V811.900943c0 14.310009 11.670265 25.980274 26.04805 25.980274h468.19181c14.373111 0 26.049218-11.670265 26.049218-25.980274v-692.185639zM398.219885 555.404019l7.237971-6.682912v52.48873l-0.373934 0.839016c-3.881908 8.695148-5.849739 17.897444-5.849739 27.348641 0 37.089637 30.175353 67.266158 67.266158 67.266158 37.091974 0 67.267326-30.176521 67.267326-67.266158 0-4.877509-0.564408-9.837985-1.676863-14.741203l-1.14868-5.063308 5.188342-0.20099c7.684356-0.299148 14.834686-3.427344 20.132872-8.806159l5.228073-5.307534 2.001719 7.177207c2.521721 9.045711 3.80011 18.111288 3.80011 26.943155 0 55.577196-45.215703 100.792899-100.794068 100.7929-55.577196 0-100.792899-45.215703-100.792899-100.7929 0.002337-27.952779 11.852558-54.921642 32.513612-73.994643zM673.144773 535.137933h-1.24567c-7.742783 0-14.800798-1.503918-21.86933-5.094859-8.286157 18.452503-25.717351 30.204566-45.660919 30.204566-8.06647 0-15.954153-1.782032-23.091629-5.277151-8.281483 18.474706-25.924184 30.174184-45.88528 30.174184-6.270416 0-12.454359-1.069219-18.297086-3.232198v41.151502c0 28.871256-21.863488 51.487287-50.048808 51.487287-28.576782 0-51.614658-23.096303-51.614658-51.487287v-172.755442l-21.531621 21.42762c-9.161397 9.09479-22.03877 14.102008-36.248284 14.102008-14.359088 0-28.212196-5.275983-37.051075-14.114862-16.579325-16.579325-28.641052-51.220859-3.531344-76.33524l132.703542-131.830639c2.750756-2.727385 5.928032-5.203533 9.451196-7.367679 23.784577-19.335924 52.108953-32.201611 112.965639-32.201611C711.311809 223.989301 722.758881 302.364821 722.758881 389.679716v94.34837C722.758881 512.899342 701.049642 535.137933 673.144773 535.137933z"  horiz-adv-x="1024" />

    
    <glyph glyph-name="yidongbangong1" unicode="&#59345;" d="M408.044882 554.358993l13.739932-12.684904v50.136887l-0.711198 1.592265c-2.467191 5.526877-3.718695 11.373025-3.718695 17.377785 0 23.577998 19.181875 42.759873 42.759873 42.759873s42.759873-19.181875 42.759873-42.759873c0-3.090385-0.35918-6.240121-1.066285-9.359158l-2.180666-9.608845 9.846253-0.382717c4.163833-0.162706 8.029884-1.848091 10.883884-4.746094l9.920954-10.07138 3.797489 13.618159c1.919722 6.886851 2.892887 13.801331 2.892887 20.550035 0 42.37818-34.476209 76.854389-76.854389 76.854389-42.377156 0-76.854389-34.477232-76.854389-76.854389 0-21.316491 9.033747-41.881876 24.784477-56.422033zM721.694371 827.246103H311.694463c-40.674375 0-73.703629-33.029254-73.703629-73.6453v-749.380432c0-40.616046 33.029254-73.699536 73.703629-73.699536h409.999908c40.668235 0 73.699536 33.083489 73.699536 73.699536V753.600803c0 40.616046-33.031301 73.6453-73.699536 73.6453zM532.574083-18.592194h-27.697829c-31.989575 6.655584-56.498782 33.637098-56.498782 67.546395 0 38.913265 31.492248 70.350255 70.348208 70.350255 38.853913 0 70.348208-31.43699 70.348208-70.350255 0-33.909297-24.511253-60.890812-56.499805-67.546395z m211.930807 166.039617H288.883945V753.600803c0 12.531408 10.219759 22.751167 22.810518 22.751166h409.999908c12.585643 0 22.810518-10.219759 22.810519-22.751166v-606.15338zM675.847184 502.999255a27.305903 27.305903 0 0 1-4.936429-0.464582c-13.137205-2.40477-22.614044-14.440897-22.614044-28.620851v-38.572503c0-4.340865-3.846608-7.871271-8.188496-7.871272-4.340865 0-8.184403 3.530406-8.184403 7.871272v67.09921c0 14.18814-9.179057 26.225291-22.299889 28.617781a26.14138 26.14138 0 0 1-4.929266 0.471745c-13.401218 0-25.00858-9.573029-27.448142-22.737864-0.311085-1.641383-0.580215-3.337002-0.580215-5.053086v-54.129828c0-4.340865-3.846608-7.873318-8.189519-7.873318-4.338818 0-8.18338 3.532453-8.18338 7.873318V538.10582c0 14.189164-9.028631 26.226315-22.150486 28.617781-1.684362 0.313132-3.14769 0.471744-4.852518 0.471745-13.399171 0-25.122167-9.573029-27.566846-22.754237-0.308015-1.641383-0.688685-3.327792-0.688685-5.036713v-96.92654c0-4.340865-3.334955-7.871271-7.675819-7.871271-4.339842 0-7.673773 3.53143-7.673774 7.871271V600.318744c0 14.18814-9.389858 26.225291-22.511713 28.617781a27.234271 27.234271 0 0 1-5.03262 0.471744c-13.399171 0-24.848944-9.573029-27.298739-22.762423-0.304945-1.64343-0.415462-3.328815-0.415462-5.028527v-222.511793l-37.819351 41.897226c-7.114025 7.113001-16.839527 11.192923-26.668383 11.192923-6.897084 0-13.465686-2.016937-18.974143-5.823635-7.706519-5.294586-12.890588-13.273305-14.594393-22.466688-1.703805-9.19236 0.272199-18.499329 5.564739-26.198685a34.882462 34.882462 0 0 1 4.044106-4.875031l127.035278-131.129526 0.299829-0.305969c0.511653-0.514723 1.020236-1.027399 1.489934-1.48584l1.089821-1.087775c0.49835-0.496304 0.970094-0.853437 1.252527-1.065261l0.074701 0.084934c25.125237-23.485901 57.780984-36.275181 91.970668-36.275181h39.237653c52.683896 0 95.127568 42.576701 95.127567 95.259574v178.403202c-0.002047 15.312754-12.3247 27.76946-27.710108 27.769461z"  horiz-adv-x="1024" />

    
    <glyph glyph-name="weixinshouquan" unicode="&#59343;" d="M474.191076 873.244444c243.029333 16.952889 470.812444-123.448889 528.213333-327.68 14.222222-40.391111 21.617778-76.856889 21.617778-109.795555a56.888889 56.888889 0 0 0-113.379556-6.656L910.244409 435.768889c0 18.716444-4.892444 42.837333-16.270222 75.491555-43.008 152.746667-219.989333 261.859556-411.875556 248.433778-216.120889-15.132444-379.278222-177.834667-367.729778-358.798222 6.542222-96.483556 60.871111-180.508444 161.223111-245.134222a56.888889 56.888889 0 0 0 25.656889-54.840889l-1.365333-7.111111-8.021333-31.232 60.302222 35.953778a56.888889 56.888889 0 0 0 29.866667 8.078222l7.850666-0.682667 45.511111-6.656c46.819556-6.485333 25.941333-4.949333 46.705778-5.461333a56.888889 56.888889 0 1 0-2.901333-113.777778c-22.414222 0.568889 0.910222-1.422222-40.504889 3.982222l-45.795556 6.485334-124.245333-74.183112a67.697778 67.697778 0 0 0-26.225778-8.476444l-8.021333-0.341333c-15.928889 0-31.573333 4.721778-46.023111 14.506666a75.662222 75.662222 0 0 0-30.72 73.272889l1.479111 7.736889 20.764444 80.839111-10.069333 7.623111C72.271076 167.708444 14.244409 265.671111 2.240853 377.400889l-1.422222 16.042667C-14.939591 640.796444 198.791964 853.902222 474.134187 873.187556zM860.580409 232.277333a28.444444 28.444444 0 0 0 45.511111-33.792l-3.072-4.096-101.831111-113.777777a28.444444 28.444444 0 0 0-38.4-3.754667l-3.982222 3.754667-68.835556 76.8a28.444444 28.444444 0 0 0 38.627556 41.528888l3.754666-3.527111 47.559111-53.191111 80.668445 90.055111zM781.846187 381.781333a54.101333 54.101333 0 0 0 24.064 1.365334l5.404444-1.365334 198.087111-67.811555c6.769778-2.275556 12.515556-8.988444 14.222222-16.042667l0.512-4.209778v-214.471111c0-132.437333-212.821333-205.312-212.821333-205.312a54.044444 54.044444 0 0 0-24.064-1.308444l-5.404444 1.308444s-199.338667 68.266667-212.195556 196.152889l-0.625778 13.027556v210.602666c0 6.997333 4.551111 14.506667 10.808889 18.375111l3.925334 1.877334 198.087111 67.811555z m14.734222-55.011555l-170.723556-58.424889v-185.230222c0-33.848889 25.031111-68.664889 70.883556-101.319111l10.126222-6.940445c20.48-13.596444 42.723556-25.486222 65.024-35.498667l14.791111-6.314666 9.898667-3.868445 12.629333 4.949334 12.174222 5.233777a470.584889 470.584889 0 0 1 65.194667 35.214223c48.355556 31.573333 76.458667 65.251556 80.213333 97.28l0.455112 7.395555L967.133298 268.288l-170.609778 58.424889zM398.244409 497.777778m-56.888889 0a56.888889 56.888889 0 1 1 113.777778 0 56.888889 56.888889 0 1 1-113.777778 0ZM625.799964 497.777778m-56.888888 0a56.888889 56.888889 0 1 1 113.777777 0 56.888889 56.888889 0 1 1-113.777777 0Z"  horiz-adv-x="1024" />

    
    <glyph glyph-name="fangchanzhengbuqueding" unicode="&#59342;" d="M225.4 752.2v-736.4h573.3V752.2H225.4z m-80.1 80h733.4v-896.4H145.3V832.2z m177.1-713.3v80h378.2v-80H322.4z m189.1 552.2l0.2-0.2 168.9-132.5v-26.6h-36v-160.9H524.5V461.6h-26V351H379.1V511.2h-36.7v26.6l169.1 133.3z"  horiz-adv-x="1024" />

    
    <glyph glyph-name="yezhu1" unicode="&#59341;" d="M677.570931 30.929269v187.029191c-63.289342 23.500096-125.37939 36.63161-200.631314 36.63161C213.550294 254.711518 0 92.533527 0-107.611997c0-6.4519 0.258076-12.827895 0.607238-19.112804h864.205417l-150.640476 112.79439c-19.735223 14.862141-36.601248 24.881562-36.601248 44.85968zM472.218345 310.607742c-136.734734 0-247.449335 111.944257-247.555602 250.090818s110.820868 250.090819 247.449335 250.090819 247.449335-111.944257 247.449335-250.090819-110.820868-250.090819-247.555602-250.090818zM1036.706447 374.200703a33.39807 33.39807 0 0 0 33.276623-33.747232v-289.014751a33.686508 33.686508 0 0 0-18.217129-30.073443l-129.812225-96.839222c-15.985531-11.886677-41.914578-11.886677-57.869746 0l-129.72114 96.687412a33.73205 33.73205 0 0 0-18.429662 30.103806V340.468652a33.534698 33.534698 0 0 0 33.39807 33.762413h287.375209z m-64.503817-288.012809l-10.626659 85.68123 58.416261 63.061628-83.935422 16.30433-41.337702 75.646628-41.30734-75.646628-83.965783-16.289149 58.522526-63.061628-10.626658-85.68123 77.422798 36.692334z"  horiz-adv-x="1144" />

    
    <glyph glyph-name="zuhu" unicode="&#59340;" d="M677.01333333 185.77066666999997v15.92533333H726.4v39.54133333h-50.60266667v52.352c17.54666667 3.776 33.6 7.69066667 49.65333334 11.60533334l-14.44266667 38.18666666c-43.456-13.088-88.11733333-21.04533333-133.19466667-24.42666666l9.45066667-37.376c17.67466667 1.62133333 32.52266667 3.776 48.448 5.536v-45.87733334h-57.888v-39.54133333h53.30133333c-13.89866667-39.808-36.29866667-76.37333333-65.312-106.86933333l17.54666667-43.31733334c21.04533333 27.392 38.73066667 57.35466667 52.352 89.19466667v-163.552h41.29066667V143.66933332999997c8.62933333-12.01066667 19.296-26.58133333 32.11733333-45.07733333l23.08266667 35.22133333c-18.752 19.02933333-36.832 36.17066667-55.18933334 51.95733334z m0 0M907.904 28.831999999999994V331.10400000000004H743.94666667v-302.272h-33.472v-39.808h227.92533333v39.808h-30.496z m-41.29066667 0h-82.048v63.01866667h82.048v-63.01866667z m0 102.15466667h-82.048v62.752h82.048v-62.752z m0 101.74933333h-82.048v61.25866667h82.048v-61.25866667zM601.71733333 449.99466667c-2.56-9.984-4.992-19.15733333-7.56266666-27.392-2.56-6.74133333-5.664-13.89866667-9.44-21.32266667-3.104-6.208-7.15733333-11.744-12.14933334-16.45866667-4.992-3.50933333-9.17333333-8.64-11.744-14.16533333-2.29333333-4.992-4.04266667-10.26133333-5.664-15.52-1.62133333-5.52533333-3.37066667-11.06133333-5.12-16.45866667-2.02666667-5.664-4.992-11.2-9.45066666-17.00266666-13.22666667-16.59733333-24.16-35.08266667-32.52266667-54.656-6.74133333-16.33066667-12.01066667-33.472-15.25333333-51.008-2.82666667-16.064-3.50933333-32.384-2.29333334-48.448 1.216-16.064 3.776-31.57333333 7.56266667-46.688 2.56-11.2 6.208-23.072 11.2-35.22133334 4.992-12.27733333 12.27733333-24.832 22.13333333-37.792 9.71733333-12.82133333 22.13333333-25.36533333 37.23733334-37.78133333 14.976-12.13866667 34.00533333-24.02133333 56.544-35.22133333-15.24266667-3.24266667-32.65066667-5.94133333-52.75733334-8.36266667-49.12-5.13066667-98.50666667-7.69066667-148.032-7.552-16.33066667 0-35.22133333 0.53333333-57.07733333 2.02666667-22.4 1.216-44.53333333 2.83733333-66.79466667 4.58666666-22.944 2.02666667-45.61066667 4.04266667-67.744 6.61333334-22.4 2.56-42.77333333 5.13066667-61.13066666 8.096-15.92533333 2.29333333-31.44533333 5.39733333-47.232 8.90666666-12.82133333 3.24266667-20.91733333 5.94133333-24.02133334 8.36266667-5.536 4.992-9.984 18.89066667-13.22666666 41.97333333-3.24266667 22.93333333-2.15466667 52.896 2.83733333 89.86666667 3.24266667 20.77866667 11.46666667 36.704 24.96 47.49866667 13.36533333 10.93333333 29.28 19.70133333 47.49866667 25.90933333 18.21866667 6.208 37.248 12.13866667 57.07733333 17.26933333 18.34666667 4.864 36.17066667 12.14933333 52.36266667 22.13333334 12.01066667 7.56266667 21.04533333 14.44266667 27.392 21.32266666 6.208 6.61333333 10.656 13.22666667 13.22666666 20.24533334 2.56 6.752 3.776 14.16533333 3.776 21.58933333 0 7.424-0.40533333 15.78666667-1.07733333 24.42666667-1.216 13.22666667-5.664 23.616-13.632 31.168-8.096 7.69066667-16.45866667 15.38133333-24.832 22.66666666-5.664 4.448-10.25066667 10.38933333-13.22666667 17.00266667-3.50933333 7.01866667-6.752 14.304-9.45066666 21.58933333-3.37066667 8.90666667-5.94133333 18.08-7.552 27.392-4.32 1.216-8.64 3.24266667-12.27733334 5.67466667-3.91466667 3.37066667-7.28533333 7.14666667-10.38933333 11.2-4.58666667 7.01866667-8.23466667 14.70933333-10.38933333 22.66666667-3.104 8.36266667-4.05333333 17.54666667-3.24266667 26.45333333 1.07733333 8.096 2.69866667 14.976 5.13066667 20.77866667 2.56 7.01866667 5.94133333 12.82133333 10.38933333 17.81333333 0 21.32266667 1.216 42.77333333 3.776 63.968 2.56 18.21866667 6.47466667 37.78133333 11.744 58.432 5.26933333 20.64 13.89866667 39.264 25.90933333 55.59466667 11.2 15.78666667 23.47733333 28.608 36.29866667 38.592s26.31466667 17.81333333 40.07466667 23.616c13.76 5.664 27.65866667 9.71733333 41.42933333 11.744 13.76 2.15466667 26.98666667 3.24266667 39.53066667 3.24266666 16.46933333 0 31.98933333-1.76 47.232-5.664 14.976-3.776 29.152-8.768 41.83466666-14.976 13.088-6.208 24.288-13.35466667 34.272-21.32266666 9.984-7.95733333 18.21866667-15.92533333 24.42666667-24.02133334 14.44266667-18.21866667 24.832-38.18666667 31.57333333-60.18133333 6.61333333-21.99466667 11.46666667-42.77333333 14.44266667-62.208 3.24266667-22.66666667 4.448-45.20533333 3.776-67.744 3.776-3.24266667 7.01866667-7.01866667 9.45066667-11.2 2.56-3.776 4.448-8.77866667 5.664-15.25333333 1.216-7.82933333 1.216-15.78666667 0-23.616-1.216-12.01066667-3.776-21.32266667-7.56266667-28.20266667a54.69973333 54.69973333 0 0 0-12.27733333-15.92533333c-4.16-3.79733333-9.568-7.02933333-15.63733334-9.056z m0 0"  horiz-adv-x="1024" />

    
    <glyph glyph-name="meiyuan" unicode="&#59339;" d="M508.11 802.918c232.776 0 422.2-189.423 422.2-422.197s-189.424-422.197-422.2-422.197c-232.773 0-422.196 189.422-422.196 422.197S275.337 802.918 508.11 802.918m0 60.314C241.647 863.232 25.6 647.185 25.6 380.72s216.047-482.51 482.51-482.51c266.467 0 482.515 216.045 482.515 482.51S774.576 863.232 508.11 863.232z m0-120.628c-199.907 0-361.883-161.977-361.883-361.884 0-199.849 161.976-361.884 361.883-361.884 199.847 0 361.883 162.035 361.883 361.884 0 199.907-162.036 361.884-361.883 361.884z m131.584-548.185c-23.737-26.623-58.017-42.293-102.84-47.004v-68.263h-57.136v67.91c-74.744 7.66-120.981 51.127-138.828 130.288l88.35 23.03c8.19-49.77 35.283-74.627 81.283-74.627 21.498 0 37.403 5.301 47.534 15.962s15.197 23.502 15.197 38.58c0 15.608-5.065 27.45-15.197 35.46-10.131 8.068-32.692 18.26-67.617 30.628-31.394 10.895-55.958 21.617-73.628 32.335-17.67 10.603-32.042 25.504-43.056 44.649-11.014 19.203-16.551 41.584-16.551 67.029 0 33.397 9.895 63.495 29.569 90.236 19.673 26.68 50.654 42.997 92.945 48.947V682.29h57.136v-52.715c63.847-7.659 105.194-43.764 123.982-108.376l-78.689-32.278c-15.373 44.293-39.052 66.44-71.21 66.44-16.141 0-29.099-4.949-38.816-14.844-9.779-9.895-14.666-21.91-14.666-35.988 0-14.372 4.712-25.387 14.136-33.103 9.365-7.66 29.568-17.14 60.431-28.508 33.926-12.371 60.55-24.09 79.81-35.105 19.319-11.014 34.692-26.27 46.236-45.647 11.486-19.438 17.258-42.116 17.258-68.089 0-39.875-11.899-73.096-35.633-99.66z"  horiz-adv-x="1024" />

    
    <glyph glyph-name="fankui" unicode="&#59337;" d="M831.488 612.864c2.048-4.608 3.584-9.216 4.608-15.36 1.024-5.632 2.048-11.776 2.048-18.432 0-6.656-1.024-12.8-3.584-18.944-2.56-6.656-6.656-12.288-11.776-18.432-5.632-5.632-11.264-11.264-15.872-15.36-4.608-4.608-8.704-8.192-11.776-11.776-3.584-3.584-7.68-7.168-11.264-10.24l-136.192 136.192c5.632 5.632 12.8 11.776 20.992 19.456 8.192 7.68 14.848 13.312 19.968 17.92 6.656 5.632 13.824 9.216 20.992 11.264 7.168 2.048 14.336 3.072 21.504 3.072 7.168 0 13.824-1.536 20.48-3.072 6.656-2.048 12.288-4.096 16.896-6.656 10.24-5.632 21.504-14.848 33.792-28.16 12.8-13.312 22.016-27.136 29.184-41.472zM263.68 257.024c3.072 3.072 9.728 9.728 20.48 20.992 10.752 11.264 24.064 24.576 39.936 40.448l268.8 268.8 136.192-137.216-156.672-156.672-58.368-58.88c-19.456-18.944-36.864-36.352-52.224-52.224-15.872-15.872-28.672-28.672-38.4-38.912-10.24-10.24-16.384-15.872-18.432-17.408-4.608-4.608-10.24-9.216-16.896-13.824-6.144-4.608-12.8-8.704-19.456-11.776-6.656-3.584-16.896-7.68-29.696-12.288-12.8-4.608-26.624-9.728-41.472-14.336-14.336-4.608-28.16-8.704-40.96-11.776-12.8-3.584-22.528-5.632-28.672-6.656-13.312-1.536-22.016 0.512-26.112 5.632-4.608 5.632-5.632 14.336-3.584 27.136 1.024 6.656 3.072 16.384 7.168 29.184 3.584 12.8 7.68 26.112 11.776 39.936 4.096 13.824 8.192 26.624 11.776 38.4 3.584 11.776 7.168 19.456 9.216 24.064 3.072 6.656 6.144 12.8 9.728 18.432 4.096 6.144 9.216 12.288 15.872 18.944zM841.216-128H182.784c-61.952 0-112.128 50.176-112.128 112.128V766.976c0 61.952 50.176 112.128 112.128 112.128h74.24c12.288 0 22.528-10.24 22.528-22.528 0-12.288-10.24-22.528-22.528-22.528H182.784c-36.864 0-67.072-30.208-67.072-67.072v-783.36c0-36.864 30.208-67.072 67.072-67.072h658.432c36.864 0 67.072 30.208 67.072 67.072v783.36c0 36.864-30.208 67.072-67.072 67.072h-89.088c-12.288 0-22.528 10.24-22.528 22.528s10.24 22.528 22.528 22.528h89.088c61.952 0 112.128-50.176 112.128-112.128v-783.36c0-61.44-50.176-111.616-112.128-111.616zM612.352 817.664H411.648c-21.504 0-39.424 17.408-39.424 39.424S390.144 896 411.648 896h200.704c21.504 0 39.424-17.408 39.424-39.424 0-21.504-17.408-38.912-39.424-38.912z"  horiz-adv-x="1024" />

    
    <glyph glyph-name="fankui1" unicode="&#59338;" d="M244.927 130.664c57.388-53.033 211.488 56.894 326.551 143.576 115.063 86.68 205.808 183.018 205.808 183.018v-379.627l-205.808-203.983H28V764.002h634.16S502.971 605.405 402.643 492.488 187.54 183.697 244.927 130.664z m64.721 75.269c-28.414 28.97 119.83 219.4 119.83 219.4l95.815-97.546S338.125 176.96 309.648 205.933z m145.25 245.264l335.414 341.256 95.874-97.484-335.473-341.257-95.816 97.485zM886.185 890L982 792.454l-70.394-71.621-95.815 97.546L886.186 890z"  horiz-adv-x="1024" />

    
    <glyph glyph-name="quanjumoshibeifen" unicode="&#59335;" d="M452.559238 213.333333h167.643429a24.380952 24.380952 0 0 1 24.380952 24.380953v198.582857c-0.073143 1.731048 0.048762 2.023619 0.316952 2.291809a2.389333 2.389333 0 0 0 1.804191 0.609524l157.866667-0.048762c21.869714 0 32.670476 26.575238 17.017904 41.837715L553.22819 742.790095a24.380952 24.380952 0 0 1-34.06019 0L251.14819 481.03619c-15.62819-15.262476-4.827429-41.813333 17.042286-41.813333h156.452572c2.121143 0.073143 2.80381-0.170667 3.218285-0.585143 0.26819-0.24381 0.390095-0.560762 0.365715-0.804571L428.178286 237.714286a24.380952 24.380952 0 0 1 24.380952-24.380953z m24.380952 223.012572c0.828952 12.970667-4.632381 27.062857-15.043047 37.205333a51.151238 51.151238 0 0 1-38.668191 14.384762l-95.183238 0.024381 208.164572 203.312762 208.457143-203.337143h-96.548572c-12.921905 0.78019-27.014095-4.437333-37.278476-14.457905a49.785905 49.785905 0 0 1-14.969905-38.66819L595.821714 262.095238h-118.881524v174.250667zM463.238095 79.238095h146.285715a24.380952 24.380952 0 0 1 0 48.761905h-146.285715a24.380952 24.380952 0 0 1 0-48.761905zM234.057143 847.238095h604.647619A160.914286 160.914286 0 0 0 999.619048 686.32381v-604.64762a160.914286 160.914286 0 0 0-160.914286-160.914285H234.057143A160.914286 160.914286 0 0 0 73.142857 81.67619V686.32381A160.914286 160.914286 0 0 0 234.057143 847.238095z m0-48.761905A112.152381 112.152381 0 0 1 121.904762 686.32381v-604.64762A112.152381 112.152381 0 0 1 234.057143-30.47619h604.647619a112.152381 112.152381 0 0 1 112.152381 112.15238V686.32381A112.152381 112.152381 0 0 1 838.704762 798.47619H234.057143z"  horiz-adv-x="1024" />

    
    <glyph glyph-name="shengji" unicode="&#59336;" d="M512 821L108.9 397.9 362 397.9 362 127l300 0L662 397.9l253.1 0L512 821z m100-373.1L611.99999999 177 412.00000001 177 412 447.9 225.6 447.9 512 748.5l286.4-300.6L612 447.9zM362 87l300 0 0-50L362 37zM362-3l300 0 0-50L362-53z"  horiz-adv-x="1024" />

    
    <glyph glyph-name="bangzhu" unicode="&#59587;" d="M512 810.666667c235.637333 0 426.666667-191.029333 426.666667-426.666667S747.637333-42.666667 512-42.666667 85.333333 148.362667 85.333333 384 276.362667 810.666667 512 810.666667z m0-586.666667a32 32 0 1 1 0-64 32 32 0 0 1 0 64z m-2.517333 373.333333c-48.416 0-92.746667-24.16-118.613334-63.413333a137.088 137.088 0 0 1-15.978666-33.237333 32 32 0 0 1 60.906666-19.690667c2.016 6.24 4.885333 12.202667 8.522667 17.717333C458.4 520.085333 482.709333 533.333333 509.482667 533.333333 552.277333 533.333333 586.666667 499.733333 586.666667 458.666667s-34.4-74.666667-77.194667-74.666667a32 32 0 0 1-32-32v-64a32 32 0 0 1 64 0v35.584C603.946667 337.802667 650.666667 392.768 650.666667 458.666667c0 76.757333-63.381333 138.666667-141.194667 138.666666z"  horiz-adv-x="1024" />

    
    <glyph glyph-name="bangzhu1" unicode="&#59334;" d="M512-128C230.4-128 0 102.4 0 384S230.4 896 512 896s512-230.4 512-512-230.4-512-512-512z m0 70.4c243.2 0 441.6 198.4 441.6 441.6S755.2 825.6 512 825.6 70.4 627.2 70.4 384 268.8-57.6 512-57.6zM518.4 640c44.8 0 83.2-12.8 108.8-38.4C652.8 576 672 544 672 499.2c0-32-6.4-64-25.6-83.2l-57.6-57.6c-19.2-6.4-25.6-19.2-32-32-6.4-12.8-12.8-32-12.8-51.2v-12.8h-76.8v12.8c0 25.6 6.4 51.2 12.8 64 6.4 19.2 38.4 51.2 76.8 89.6L576 448c12.8 19.2 19.2 32 19.2 51.2 0 25.6-6.4 44.8-19.2 57.6-12.8 12.8-38.4 19.2-64 19.2-32 0-51.2-12.8-64-32-12.8-12.8-19.2-38.4-19.2-70.4H352c0 51.2 12.8 89.6 44.8 121.6 32 32 70.4 44.8 121.6 44.8z m-12.8-409.6c12.8 0 25.6-6.4 38.4-12.8 12.8-6.4 12.8-19.2 12.8-38.4 0-12.8-6.4-25.6-12.8-38.4-12.8-6.4-25.6-12.8-38.4-12.8s-25.6 6.4-38.4 12.8c-12.8 12.8-12.8 19.2-12.8 38.4 0 12.8 6.4 25.6 12.8 38.4 12.8 6.4 25.6 12.8 38.4 12.8z"  horiz-adv-x="1024" />

    
    <glyph glyph-name="bofang1" unicode="&#59333;" d="M909.892465 564.218269c-21.798121 51.476314-52.909055 97.631021-92.514092 137.236058-39.605037 39.605037-85.862083 70.818309-137.236058 92.514092-53.21607 22.514491-109.809314 33.976414-168.142315 33.976414S397.176094 816.585249 343.857685 793.968419c-51.476314-21.798121-97.631021-52.909055-137.236058-92.514092s-70.818309-85.862083-92.514092-137.236058c-22.514491-53.21607-33.976414-109.809314-33.976414-168.142315s11.461923-114.823906 33.976414-168.142315c21.798121-51.476314 52.909055-97.631021 92.514092-137.236058 39.605037-39.605037 85.862083-70.818309 137.236058-92.514092 53.21607-22.514491 109.809314-33.976414 168.142315-33.976414s114.823906 11.461923 168.142315 33.976414c51.476314 21.798121 97.631021 52.909055 137.236058 92.514092 39.605037 39.605037 70.818309 85.862083 92.514092 137.236058 22.514491 53.21607 33.976414 109.809314 33.976414 168.142315S932.509294 510.89986 909.892465 564.218269zM512 9.236058c-213.273636 0-386.839896 173.56626-386.839896 386.839896s173.56626 386.839896 386.839896 386.839896 386.839896-173.56626 386.839896-386.839896S725.273636 9.236058 512 9.236058zM641.355986 399.760144 458.681591 528.195083c-8.391765 5.8333-19.649011-0.102339-19.649011-10.336198l0-256.869878c0-10.23386 11.257246-16.169498 19.649011-10.336198l182.776734 128.434939C648.622027 384.102339 648.519688 394.745553 641.355986 399.760144z"  horiz-adv-x="1024" />

    
    <glyph glyph-name="bofang" unicode="&#59332;" d="M512-125.72444444999996C230.48647111-125.72444444999996 2.27555555 102.48647111000002 2.27555555 384S230.48647111 893.72444445 512 893.72444445s509.72444445-228.21091555 509.72444445-509.72444445-228.21091555-509.72444445-509.72444445-509.72444445z m0 72.81777778c241.29649778 0 436.90666667 195.61016889 436.90666667 436.90666667S753.29649778 820.90666667 512 820.90666667 75.09333333 625.29649778 75.09333333 384s195.61016889-436.90666667 436.90666667-436.90666667z m153.04248889 374.90346667L433.24302222 179.24551111000005c-17.12128-10.54378667-39.54915555-5.21102222-50.09408 11.91025778a36.40888889 36.40888889 0 0 0-5.40672 19.09191111V557.75232c0 20.10794667 16.30094222 36.40888889 36.40888889 36.40888889a36.40888889 36.40888889 0 0 0 19.09191111-5.40672l231.79946667-142.75128889c34.24369778-21.08871111 44.90808889-65.94332445 23.81937778-100.18702222a72.81777778 72.81777778 0 0 0-23.81937778-23.81937778z"  horiz-adv-x="1024" />

    
    <glyph glyph-name="liaotian2" unicode="&#59331;" d="M1022.976 197.632c0 58.88-24.064 113.664-64.512 155.648-44.544-175.616-223.744-307.2-438.784-310.784 51.712-55.296 131.072-90.624 219.648-90.624 21.504 0 41.984 2.048 61.952 6.144 54.784-75.776 121.856-72.192 121.856-72.192-24.064 14.848-27.136 69.632-26.112 108.032 76.288 44.032 125.952 119.296 125.952 203.776z m0 0M458.24 882.176C205.312 882.176 0 704.512 0 485.376c0-137.216 80.384-258.048 202.24-329.216 1.536-61.44-3.584-150.016-41.984-174.592 0 0 108.544-5.632 197.12 116.736 32.256-6.144 66.048-9.728 100.352-9.728H465.92c215.04 3.584 394.24 135.168 438.784 310.784 7.168 27.648 10.752 56.32 10.752 86.016 0.512 219.136-204.288 396.8-457.216 396.8zM256 433.152c-33.792 0-60.928 27.136-60.928 60.928 0 33.792 27.136 60.928 60.928 60.928 33.792 0 60.928-27.136 60.928-60.928 0-33.792-27.136-60.928-60.928-60.928z m202.24 0c-33.792 0-60.928 27.136-60.928 60.928 0 33.792 27.136 60.928 60.928 60.928 33.792 0 60.928-27.136 60.928-60.928 0-33.792-27.136-60.928-60.928-60.928z m202.24 0c-33.792 0-60.928 27.136-60.928 60.928 0 33.792 27.136 60.928 60.928 60.928 33.792 0 60.928-27.136 60.928-60.928 0-33.792-27.136-60.928-60.928-60.928z m0 0"  horiz-adv-x="1024" />

    
    <glyph glyph-name="jiantouarrow505" unicode="&#59330;" d="M813.63968 371.75296l-289.46432-376.5248c-2.89792-3.77856-7.424-6.00064-12.17536-6.00064-4.78208 0-9.27744 2.22208-12.17536 6.00064l-289.4848 376.5248c-2.11968 2.7648-3.18464 6.06208-3.18464 9.3696 0 3.24608 1.024 6.5024 3.10272 9.24672 4.13696 5.50912 11.47904 7.56736 17.89952 5.03808L419.84 319.6928l-0.02048 443.71968c0.02048 8.48896 6.88128 15.36 15.38048 15.36l153.57952 0c8.4992 0 15.36-6.87104 15.38048-15.36L604.13952 319.6928l191.68256 75.7248c6.42048 2.52928 13.76256 0.47104 17.92-5.04832C817.89952 384.84992 817.87904 377.23136 813.63968 371.75296z"  horiz-adv-x="1024" />

    
    <glyph glyph-name="jiantouarrow505-copy" unicode="&#60222;" d="M210.36032 396.24704l289.46432 376.5248c2.89792 3.77856 7.424 6.00064 12.17536 6.00063999 4.78208001 0 9.27744-2.22208 12.17536-6.00063999l289.4848-376.5248c2.11968-2.7648 3.18464-6.06208001 3.18464-9.36959999 0-3.24608-1.024-6.5024-3.10272-9.24672001-4.13696-5.50912-11.47904-7.56736-17.89952-5.03808001L604.16 448.30719999l0.02048001-443.71967999c-0.02048-8.48896-6.88128-15.36-15.38048001-15.36l-153.57952 0c-8.49919999 0-15.36 6.87104-15.38048 15.36L419.86048 448.3072l-191.68256-75.7248c-6.42048-2.52928-13.76256-0.47104-17.92 5.04832C206.10048 383.15008 206.12096 390.76864 210.36032 396.24704z"  horiz-adv-x="1024" />

    
    <glyph glyph-name="sousuo3" unicode="&#59328;" d="M417.408 62.656a416.512 416.512 0 0 0-416 416c0 229.376 186.624 416 416 416s416-186.624 416-416c0-229.312-186.624-416-416-416z m0 768c-194.112 0-352-157.888-352-352s157.888-352 352-352c194.048 0 352 157.888 352 352s-157.888 352-352 352zM990.592-126.656a32 32 0 0 0-22.272 9.024l-299.008 289.344a32 32 0 0 0 44.48 46.016l299.008-289.344a32 32 0 0 0-22.208-55.04z"  horiz-adv-x="1024" />

    
    <glyph glyph-name="sousuo-" unicode="&#59329;" d="M216.8 114.7C55.7 275.8 55.7 538 216.8 699.1s423.2 161.1 584.3 0 161.1-423.2 0-584.3-423.2-161.2-584.3-0.1z m530.9 530.9c-131.6 131.6-345.7 131.6-477.4 0-131.6-131.6-131.6-345.7 0-477.3 131.6-131.6 345.7-131.6 477.3 0 131.7 131.5 131.7 345.7 0.1 477.3zM890.2-51.9c-9.6 0-19.2 3.6-26.5 10.9L741.2 79.5c-14.9 14.7-15.1 38.6-0.4 53.5 14.7 14.9 38.6 15.1 53.5 0.4l122.5-120.5c14.9-14.7 15.1-38.6 0.4-53.5-7.5-7.5-17.2-11.3-27-11.3zM487.4 620.4c-7.1 7.1-11.3 16.9-11.1 27.7 0.6 20.9 17.9 37.4 38.8 36.8 72.9-1.9 141.5-31.4 193.1-83 14.8-14.8 14.8-38.7 0-53.5-14.8-14.8-38.7-14.8-53.5 0-37.8 37.8-88.1 59.5-141.6 60.8-10.1 0.4-19.1 4.6-25.7 11.2zM723.9 411.8c-5.5 5.5-9.4 12.8-10.6 21.1-1.5 10.2-3.9 20.5-7 30.5-6.2 20 4.9 41.2 24.9 47.4 20 6.2 41.2-4.9 47.4-24.9 4.3-13.7 7.5-27.7 9.6-41.7 3.1-20.6-11.1-39.9-31.7-43-12.5-1.9-24.4 2.4-32.6 10.6z"  horiz-adv-x="1024" />

    
    <glyph glyph-name="710bianjiqi_qingchugeshi" unicode="&#59326;" d="M651.229 696.967c-6.769 6.77-17.845 6.77-24.615 0L74.612 144.964c-6.769-6.768-6.769-17.845 0-24.614l107.36-107.361c6.77-6.769 20.14-12.307 29.713-12.307H555.62c9.572 0 22.944 5.538 29.712 12.307l362.63 362.628c6.77 6.769 6.77 17.845 0 24.615L651.23 696.967zM551.187 78.478c-6.769-6.768-20.14-12.307-29.712-12.307H255.194c-9.573 0-22.944 5.539-29.712 12.307l-50.61 50.61c-6.769 6.769-6.769 17.845 0 24.615l202.36 202.361c6.77 6.768 17.846 6.768 24.616 0l201.155-201.156c6.769-6.768 6.769-17.845 0-24.614l-51.816-51.816z"  horiz-adv-x="1024" />

    
    <glyph glyph-name="icon-test2" unicode="&#59324;" d="M3.572093 359.590698v45.84186c0 1.190698 0.595349 2.381395 0.595349 3.572093 1.190698 22.623256 4.167442 44.651163 7.739535 66.67907 7.739535 41.674419 20.24186 81.562791 38.102325 120.260465C78.586047 657.265116 117.283721 710.846512 166.697674 756.093023c17.265116 16.074419 35.72093 30.95814 54.772093 44.055814 41.674419 29.172093 86.92093 51.795349 135.739535 67.274419 54.176744 17.265116 109.544186 25.6 166.697675 23.813953 27.981395-0.595349 55.367442-3.572093 82.753488-8.334883 41.674419-7.739535 81.562791-20.24186 120.260465-38.102326 51.2-23.218605 97.04186-54.772093 137.525582-93.469767 19.646512-18.455814 37.506977-38.697674 54.176744-60.130233 23.813953-30.95814 43.460465-64.297674 59.534884-100.018605 21.432558-47.627907 35.125581-97.04186 41.079069-148.837209 3.572093-30.362791 4.167442-60.130233 2.381396-90.493023-1.786047-30.362791-6.548837-60.725581-13.693024-90.493023-10.716279-44.651163-27.386047-86.92093-49.413953-126.809303-22.027907-39.293023-48.223256-75.013953-79.776744-107.16279-13.693023-13.693023-28.576744-26.790698-43.460465-39.293024-25.6-22.027907-53.581395-39.888372-83.348838-55.367442-30.362791-16.074419-62.511628-29.172093-95.851162-38.697674-32.148837-9.525581-64.893023-15.47907-98.232559-18.455814-25.004651-2.381395-50.009302-2.381395-75.609302-1.190698-30.95814 1.786047-60.725581 6.548837-91.088372 13.693024-44.651163 10.716279-86.92093 27.386047-126.809302 49.413953-39.293023 21.432558-74.418605 48.223256-106.567442 79.181395-19.646512 19.051163-38.102326 39.888372-54.772093 61.91628-21.432558 29.172093-39.888372 60.130233-54.772093 92.874418-15.47907 33.934884-27.386047 69.655814-34.530233 106.567442-4.167442 20.837209-5.953488 41.674419-8.930232 61.916279 0 6.548837-0.595349 13.097674-1.190698 19.646512z m509.618605 453.655814c-238.139535-0.595349-425.674419-189.916279-430.43721-420.911628-4.762791-246.474419 189.916279-435.795349 420.911628-440.55814 246.474419-4.762791 435.795349 190.511628 440.55814 420.911628 4.167442 247.069767-193.488372 440.55814-431.032558 440.55814zM513.190698 135.739535c-44.055814 0-85.134884 10.12093-123.23721 32.148837-23.813953 13.693023-45.246512 30.95814-63.106976 51.795349-14.288372 16.669767-25.6 35.72093-34.530233 55.962791-4.762791 11.906977-3.572093 23.218605 5.35814 32.148837 13.693023 14.883721 35.125581 10.716279 44.055814-3.572093 4.762791-7.739535 8.334884-16.669767 13.097674-24.409303 10.716279-18.455814 24.409302-33.934884 41.07907-46.437209 18.455814-14.288372 38.697674-25.004651 61.32093-31.553488 19.051163-5.35814 38.697674-8.334884 58.939535-7.739535 29.767442 0.595349 57.153488 7.144186 83.348837 20.24186 22.623256 11.311628 41.674419 26.790698 57.153488 46.43721 8.930233 11.311628 16.074419 23.218605 22.027907 36.316279 2.976744 6.548837 7.144186 13.097674 14.288373 16.074418 9.525581 4.762791 18.455814 4.762791 27.981395-0.595348s13.693023-13.693023 14.288372-23.813954c0-4.167442-1.190698-8.930233-2.976744-13.097674-10.12093-23.218605-23.813953-44.651163-41.674419-63.106977-36.316279-38.697674-80.967442-62.511628-132.762791-72.037209-14.883721-2.976744-30.362791-3.572093-45.84186-5.35814 1.190698 0 1.190698 0.595349 1.190698 0.595349zM442.344186 520.334884c-2.976744-35.72093-26.195349-56.55814-59.534884-59.534884-35.72093 3.572093-55.962791 25.004651-59.534883 59.534884 2.976744 35.125581 25.004651 58.939535 59.534883 58.939535 35.72093 0 56.55814-25.004651 59.534884-58.939535zM653.097674 499.497674c-14.883721 0-28.576744 1.190698-41.674418 5.953489-7.144186 2.381395-14.883721 4.762791-17.860465 13.097674-0.595349 1.190698-0.595349 2.381395 0 3.572093 2.976744 8.334884 10.716279 10.716279 17.860465 13.097675 13.693023 4.762791 27.386047 5.953488 41.674418 5.953488 13.693023 0 27.386047-1.190698 39.888373-5.953488 7.144186-2.381395 14.883721-4.762791 17.860465-13.097675 0.595349-1.190698 0.595349-2.976744 0-4.167442-2.976744-8.334884-10.716279-10.716279-17.860465-12.502325-12.502326-4.762791-26.790698-5.953488-39.888373-5.953489z"  horiz-adv-x="1024" />

    
    <glyph glyph-name="weixiao" unicode="&#59325;" d="M512 896a512 512 0 1 0 0-1024A512 512 0 0 0 512 896z m0-46.528C255.36 849.472 46.528 640.64 46.528 384S255.36-81.472 512-81.472 977.472 127.36 977.472 384 768.64 849.472 512 849.472z m309.504-517.248c0-156.992-138.048-284.352-308.224-284.352-170.24 0-308.288 127.36-308.288 284.352h616.512zM307.52 526.592a61.888 61.888 0 1 0 123.776 0 61.888 61.888 0 0 0-123.776 0z m358.72 0a61.952 61.952 0 1 0 123.84 0 61.952 61.952 0 0 0-123.84 0z"  horiz-adv-x="1024" />

    
    <glyph glyph-name="taiyang" unicode="&#59323;" d="M514.759407 386.97936m-509.02064 0a509.02064 509.02064 0 1 1 1018.04128 0 509.02064 509.02064 0 1 1-1018.04128 0ZM267.742477 522.89016m-107.536896 0a107.536896 107.536896 0 1 1 215.073793 0 107.536896 107.536896 0 1 1-215.073793 0ZM751.638515 522.89016m-107.536896 0a107.536896 107.536896 0 1 1 215.073793 0 107.536896 107.536896 0 1 1-215.073793 0ZM751.638515 254.057917c0-32.622991-32.67298-86.171487-84.29189-127.872527-15.716623 42.350901-80.322743 74.104079-157.656129 74.104079s-141.939505-31.753178-157.656128-74.104079c-51.61891 41.701041-84.29189 95.259534-84.291891 127.872527 0 107.536896 161.295347 26.884224 241.948019 26.884224s241.948019 80.642674 241.948019-26.884224zM667.346625 126.18539c-42.330905-34.142665-97.439066-60.307043-157.656129-60.307044-60.217063 0-115.325223 26.164379-157.656128 60.307044 15.716623 42.350901 80.322743 74.104079 157.656128 74.104079s141.939505-31.753178 157.656129-74.104079z"  horiz-adv-x="1024" />

    
    <glyph glyph-name="zhiwei" unicode="&#59322;" d="M338.34496 896h259.49184l-55.88992-235.5456h-153.7024L338.34496 888.00768V896z m129.75104-1024l-251.51488 211.58912L388.24448 614.54848h155.69408l169.6768-536.95488L468.096-128z m339.32288 347.32544h-71.35232l-108.29824 309.39136 179.65056-239.5392v-69.85216z"  horiz-adv-x="1024" />

    
    <glyph glyph-name="zhiwei1" unicode="&#59321;" d="M838.144 44.03200000000004H187.392c-57.344 0-104.448 46.592-104.448 104.448V619.52c0 57.344 46.592 104.448 104.448 104.448h650.752c57.344 0 104.448-46.592 104.448-104.448v-471.04c0-57.344-47.104-104.448-104.448-104.448zM187.392 681.984c-34.304 0-62.464-28.16-62.464-62.464v-471.04c0-34.304 28.16-62.464 62.464-62.464h650.752c34.304 0 62.464 28.16 62.464 62.464V619.52c0 34.304-28.16 62.464-62.464 62.464H187.392zM375.296 337.408c-68.096 0-123.904 55.296-123.904 123.904 0 68.096 55.296 123.904 123.904 123.904 68.096 0 123.904-55.296 123.904-123.904-0.512-68.096-55.808-123.904-123.904-123.904z m0 206.336c-45.056 0-81.92-36.864-81.92-81.92s36.864-81.92 81.92-81.92c45.056 0 81.92 36.864 81.92 81.92s-36.864 81.92-81.92 81.92zM530.432 182.27200000000005c-11.264 0-20.992 9.216-20.992 20.992 0 74.24-60.416 134.144-134.144 134.144-74.24 0-134.144-60.416-134.144-134.144 0-11.264-9.216-20.992-20.992-20.992-11.264 0-20.992 9.216-20.992 20.992 0 97.28 78.848 176.128 176.128 176.128 97.28 0 176.128-78.848 176.128-176.128-0.512-11.264-9.728-20.992-20.992-20.992zM809.984 496.64h-225.28c-11.264 0-20.992 9.216-20.992 20.992 0 11.264 9.216 20.992 20.992 20.992h225.28c11.264 0 20.992-9.216 20.992-20.992-0.512-11.776-9.728-20.992-20.992-20.992zM809.984 371.712H605.696c-11.264 0-20.992 9.216-20.992 20.992 0 11.264 9.216 20.992 20.992 20.992h204.288c11.264 0 20.992-9.216 20.992-20.992-0.512-11.776-9.728-20.992-20.992-20.992zM809.984 246.27200000000005H626.688c-11.264 0-20.992 9.216-20.992 20.992s9.216 20.992 20.992 20.992h183.296c11.264 0 20.992-9.216 20.992-20.992s-9.728-20.992-20.992-20.992z"  horiz-adv-x="1024" />

    
    <glyph glyph-name="daikan2" unicode="&#59320;" d="M509.883801 471.450724c-47.481408 0-85.968977-39.23049-85.968977-87.620593 0-48.393173 38.487569-87.618547 85.968977-87.618547 47.480384 0 85.967954 39.225373 85.967954 87.618547C595.851755 432.220235 557.363162 471.450724 509.883801 471.450724zM510.40364 340.408179c-23.629163 0-42.784432 19.524682-42.784432 43.609217 0 24.082488 19.154245 43.605124 42.784432 43.605124 23.63428 0 42.787502-19.521612 42.787502-43.605124C553.191142 359.932862 534.03792 340.408179 510.40364 340.408179zM512.021487 896c-282.746666 0-511.957021-229.211379-511.957021-511.957021s229.211379-511.957021 511.957021-511.957021 511.957021 229.211379 511.957021 511.957021S794.76713 896 512.021487 896zM508.346795 189.04891299999997c-174.36012 0-281.646612 194.995089-281.646612 194.995089s108.311845 194.993043 281.646612 194.993043c164.103522 0 286.857287-194.993043 286.857287-194.993043S671.424964 189.04891299999997 508.346795 189.04891299999997z"  horiz-adv-x="1024" />

    
    <glyph glyph-name="jiedao" unicode="&#59319;" d="M984 208h-45.248A160 160 0 0 1 824 322.752V648h161.336a40 40 0 0 1 0 80H824V856a40 40 0 0 1-80 0v-128H449.336a39.976 39.976 0 0 1-33.664-18.616L322.296 616H40a40 40 0 0 1 0-80h160v-328H40a40 40 0 0 1 0-80h160v-216a40 40 0 0 1 80 0V128h349.248A160 160 0 0 1 744 13.248V-88a40 40 0 0 1 80 0V13.248A160 160 0 0 1 938.752 128H984a40 40 0 0 1 0 80zM280 536h64a40.056 40.056 0 0 1 37.272 25.84l86.16 86.16H744v-325.248A160 160 0 0 1 629.248 208H280z m544-437.208a80.368 80.368 0 0 0-18.32-7.736c-0.56-0.16-1.136-0.296-1.704-0.44a79.184 79.184 0 0 0-7.72-1.584c-0.808-0.12-1.616-0.264-2.432-0.368a72.992 72.992 0 0 0-19.648 0c-0.816 0.104-1.624 0.24-2.432 0.368a79.184 79.184 0 0 0-7.72 1.584c-0.568 0.144-1.144 0.28-1.712 0.44A80.016 80.016 0 1 0 824 98.792z"  horiz-adv-x="1025" />

    
    <glyph glyph-name="dayinhetong" unicode="&#59317;" d="M611.968 523.955c-26.086 0-46.95 22.605-46.95 46.95 0 26.086 20.864 46.925 46.95 46.925s46.925-20.838 46.925-46.925c0-26.112-20.838-46.95-46.925-46.95zM611.968 593.51c-12.186 0-22.605-8.704-22.605-22.605 0-12.186 10.419-20.864 22.605-20.864 12.16 0 22.605 8.704 22.605 20.864 0 13.901-10.445 22.605-22.605 22.605zM721.485 523.955c-0.061-0-0.133-0-0.205-0-25.817 0-46.746 20.929-46.746 46.746 0 0.072 0 0.144 0 0.216-0 26.075 20.864 46.914 46.95 46.914s48.666-20.838 48.666-46.925c0.026-26.112-22.579-46.95-48.666-46.95zM721.485 593.51c-12.186 0-22.605-8.704-22.605-22.605 0-12.186 10.419-22.605 22.605-22.605 13.901 0 22.605 10.419 22.605 22.605 0 13.901-8.704 22.605-22.605 22.605zM832.742 523.955c-26.086 0-48.666 20.838-48.666 46.95 0 26.086 22.605 46.925 48.666 46.925 24.346 0 46.95-20.838 46.95-46.925 0-12.186-5.222-24.346-13.901-33.050-8.704-8.678-20.864-13.901-33.050-13.901zM832.742 593.51c-13.901 0-22.605-8.704-22.605-22.605 0-12.186 8.704-20.864 22.605-20.864 6.963-1.715 15.642 3.482 19.123 10.419s3.482 15.642 0 22.605-12.134 10.445-19.123 10.445zM665.856 125.824h-307.712c-8.704 0-17.408-8.704-17.408-19.123 0-12.186 8.704-20.838 17.408-20.838h307.712c10.445 0 17.408 8.678 17.408 20.838-0.026 10.419-6.963 19.123-17.408 19.123zM665.856 254.49h-307.712c-8.704 0-17.408-8.704-17.408-20.838 0-12.186 8.704-20.864 17.408-20.864h307.712c10.445 0 17.408 8.704 17.408 20.864-0.026 12.134-6.963 20.838-17.408 20.838zM938.803 716.928h-112.998v60.851c0 20.838-15.642 36.506-36.506 36.506h-554.598c-19.123 0-36.506-15.642-36.506-36.506v-62.592h-112.998c-19.123 0-34.765-13.901-34.765-33.024v-478.106c0-19.123 15.642-33.024 34.765-33.024h177.331v24.346h-177.331c-5.222 0-8.704 3.482-8.704 8.678v478.106c0 5.222 3.482 8.704 8.704 8.704h853.606c5.222 0 8.704-3.482 8.704-8.704v-478.106c0-5.197-3.482-8.678-8.704-8.678h-177.331v158.208c0 1.715 0 5.222-1.715 6.938h73.011c10.445 0 17.408 8.704 17.408 19.123-0.015 9.603-7.803 17.382-17.408 17.382-0 0-0-0-0-0l-641.536 0c-8.704 0-17.408-8.678-17.408-17.382 0-10.419 8.704-19.123 17.408-19.123h73.011c-1.715-1.715-1.715-5.222-1.715-6.938v-363.341c0-20.864 17.382-36.531 38.246-36.531h422.451c20.864 0 38.246 15.642 38.246 38.246v179.072h177.331c19.123 0 34.765 13.901 34.765 33.024v478.106c0 19.123-15.642 34.765-34.765 34.765zM801.459 716.928h-578.918v60.851c0 6.938 5.197 12.186 12.16 12.186h554.598c6.938 0 12.186-5.222 12.186-12.186v-60.851zM723.226-21.939h-422.451c-6.938 0-13.901 5.222-13.901 12.186v363.341c0 1.715 1.715 5.222 3.482 6.938h443.315c2.028-2.126 3.36-4.931 3.624-8.041l-0.142-360.522c0-5.197-1.741-6.938-3.482-10.419-3.507-1.741-6.989-3.482-10.445-3.482z"  horiz-adv-x="1024" />

    
    <glyph glyph-name="dayin" unicode="&#59318;" d="M892.8 668.8h-65.6V896H190.4v-227.2H124.8C51.2 668.8 0 609.6 0 544v-452.8h219.2V-128h585.6V91.2H1024V545.6c-8 72-65.6 123.2-131.2 123.2z m-608 153.6h438.4v-145.6H284.8V822.4z m440-876.8H284.8V238.4h438.4v-292.8zM944 164.8h-145.6v145.6H212.8v-145.6H65.6l-6.4 380.8c0 36.8 28.8 65.6 65.6 65.6h768c36.8 0 65.6-28.8 65.6-65.6L944 164.8zM540.8 529.6H241.6c-22.4 0-36.8-14.4-36.8-36.8s14.4-36.8 36.8-36.8h299.2c22.4 0 36.8 14.4 36.8 36.8s-14.4 36.8-36.8 36.8z"  horiz-adv-x="1024" />

    
    <glyph glyph-name="luyin" unicode="&#59316;" d="M511.66468323 118.82365155000002c95.44308736 0 172.81515065 77.14502542 172.81515066 172.31217437L684.47983389 491.93830173 338.84953259 491.93830173l0-200.80131072C338.84953259 195.96867811000004 416.22043193 118.82365155000002 511.66468323 118.82365155000002zM684.4786688 721.44297757c0 95.16365597-77.37089934 172.30751744-172.81515065 172.30751744S338.84953259 816.60546958 338.84953259 721.44297757l0-200.80596765 345.62913621 0L684.4786688 721.44297757zM740.52084736 491.93131577l0-200.89678279c0-125.74735815-102.66637312-228.0458149-228.85383509-228.0458149-126.18979101 0-228.85383509 102.29962069-228.8538351 228.0458149L282.81317603 491.93131577l-31.93312028 0 0-200.89678279c0-136.04904163 105.46417437-247.93663147 239.18346126-258.92175531l0-128.54748842-64.80466261 0 0-28.70453021L598.07051207-125.13924096000005l0 28.70453021-64.80466261 0L533.26584946 32.112777670000014c133.72161479 10.98628779 239.18811819 122.87387875 239.18811819 258.92175531L772.45396765 491.93131577 740.52084736 491.93131577z"  horiz-adv-x="1024" />

    
    <glyph glyph-name="yinhaoboda" unicode="&#59315;" d="M833.28 236.544a486.4 486.4 0 0 0-155.136 25.6 43.776 43.776 0 0 1-47.104-13.312l-72.192-84.224a631.808 631.808 0 0 0-286.976 291.584l83.2 71.168a43.52 43.52 0 0 1 13.568 46.848 481.792 481.792 0 0 0-25.6 155.392A38.656 38.656 0 0 1 303.872 768H143.104a38.912 38.912 0 0 1-38.656-37.888 531.2 531.2 0 0 1 10.24-108.544 731.136 731.136 0 0 1 76.8-231.936v-2.048A728.576 728.576 0 0 1 787.968 0H793.6c13.312 0 25.6-1.28 40.192-1.28a38.912 38.912 0 0 1 36.608 38.4v160.768a38.656 38.656 0 0 1-37.12 38.656zM806.4 620.8l99.584 99.584a9.728 9.728 0 0 1 0 13.824 9.472 9.472 0 0 1-13.568 0l-104.448-104.448a267.52 267.52 0 0 1-112.64 25.6c-117.504 0-211.712-83.968-267.52-145.664a463.104 463.104 0 0 1 144.896-115.456l-107.008-107.008a9.472 9.472 0 0 1 0-13.568 9.472 9.472 0 0 1 13.568 0l112.384 112.128a271.616 271.616 0 0 1 103.68-22.016c117.248 0 219.392 88.32 267.264 145.92a525.312 525.312 0 0 1-136.192 111.104z m-219.904-110.848a88.832 88.832 0 0 0 88.832 88.832 91.648 91.648 0 0 0 20.48-2.56 51.2 51.2 0 0 1-19.712-40.448 51.2 51.2 0 0 1 8.96-28.928l-76.8-76.8a87.552 87.552 0 0 0-21.76 59.904z m88.832-88.832a88.064 88.064 0 0 0-51.2 16.896L698.624 512a52.736 52.736 0 0 1 29.44-9.216 51.2 51.2 0 0 1 35.072 14.08v-7.936a88.576 88.576 0 0 0-87.808-87.808z"  horiz-adv-x="1024" />

    
    <glyph glyph-name="dengji2" unicode="&#59311;" d="M1025.024 384c0-282.624-229.376-512-512-512s-512 229.376-512 512S230.4 896 513.024 896s512-229.376 512-512zM398.848 171.008l284.16 293.376L579.072 573.44 294.4 280.064l-40.96-144.896 145.408 35.84z m304.64 315.904l52.736 54.272c17.408 17.92 17.408 47.616 0 65.536l-41.984 43.52c-17.408 17.92-45.056 17.92-62.464 0l-52.736-54.272 104.448-109.056z"  horiz-adv-x="1025" />

    
    <glyph glyph-name="liaotian1" unicode="&#59312;" d="M512 896c282.7776 0 512-229.2224 512-512s-229.2224-512-512-512S0 101.2224 0 384 229.2224 896 512 896z m-2.048-256a253.6448 253.6448 0 0 1-99.584-20.8896 256.4608 256.4608 0 0 1-80.9728-55.1168c-22.912-23.2192-40.96-50.2784-54.1696-81.2288a243.1488 243.1488 0 0 1-19.2-99.2c0.768-33.28 7.2704-64.3072 19.5072-93.1328a263.936 263.936 0 0 1 48.0512-75.6992c6.2208-6.9632 9.984-14.4128 11.3408-22.3488 1.3824-7.936-1.8432-14.0032-9.6-18.2528-14.7456-7.7568-32.4096-13.3632-52.992-16.8448-3.8912-0.768 3.968-4.2496 23.5776-10.4192 19.6096-6.1952 49.6128-11.2384 89.984-15.104a630.6304 630.6304 0 0 1 88.832-3.4816c11.8272 0.384 22.6048 0.9728 32.3328 1.7408 9.7024 0.768 18.816 1.7408 27.3664 2.9184a259.1488 259.1488 0 0 1 92.3136 27.264 271.0272 271.0272 0 0 1 74.5472 55.9872 249.7792 249.7792 0 0 1 49.5104 78.0288A241.408 241.408 0 0 1 768 388.1984a248.832 248.832 0 0 1-20.9664 98.9184 250.5216 250.5216 0 0 1-55.6288 80.0512 266.5728 266.5728 0 0 1-81.8176 53.6832 245.76 245.76 0 0 1-99.584 19.1232z m148.0448-219.4176c10.1376 0 18.816-3.5328 26.0352-10.5472 7.2192-7.0144 10.8288-15.616 10.8288-25.7536s-3.6096-18.816-10.8288-26.0352a35.5072 35.5072 0 0 0-26.0352-10.8288 34.56 34.56 0 0 0-25.7536 10.8288 35.9936 35.9936 0 0 0-10.5216 26.0352c0 10.1632 3.5072 18.7392 10.5216 25.7536 7.0144 7.0144 15.616 10.5472 25.7536 10.5472z m-145.9968 0c10.2912 0 18.944-3.5328 26.0096-10.5728 7.04-7.0656 10.5728-15.7184 10.5728-26.0096 0-9.9072-3.5328-18.4832-10.5728-25.7024A34.8672 34.8672 0 0 0 512 347.392c-9.9072 0-18.4832 3.6352-25.7024 10.88A35.1488 35.1488 0 0 0 475.392 384c0 10.2912 3.6352 18.944 10.88 26.0096A35.6096 35.6096 0 0 0 512 420.5824z m-146.5856 0c10.368 0 19.1232-3.584 26.2144-10.6752 7.1168-7.0912 10.6496-15.616 10.6496-25.6s-3.5328-18.6368-10.6496-25.9328a35.1488 35.1488 0 0 0-26.2144-10.9568c-9.984 0-18.5088 3.6608-25.6 10.9568a35.8912 35.8912 0 0 0-10.6752 25.9072c0 9.984 3.5584 18.5344 10.6496 25.6256a34.944 34.944 0 0 0 25.6256 10.6752z"  horiz-adv-x="1024" />

    
    <glyph glyph-name="daikan1" unicode="&#59313;" d="M512 384m-512 0a512 512 0 1 1 1024 0 512 512 0 1 1-1024 0ZM512 172.4c-115.17 0-215.18 72.68-278.81 133.64a26 26 0 0 0 36 37.6C326 289.27 414.12 224.47 512 224.47c98.12 0 186.47 65.08 243.3 119.67a26 26 0 1 0 36.07-37.55C727.64 245.37 627.43 172.4 512 172.4zM252.1 418a26 26 0 0 0-18 44.86C297.56 523.4 397.26 595.6 512 595.6s214.41-72.17 277.83-132.72a26 26 0 1 0-35.94-37.66c-56.55 54-144.41 118.31-241.89 118.31s-185.37-64.36-241.93-118.35A26 26 0 0 0 252.1 418zM512 466.51A82.51 82.51 0 1 0 429.49 384 82.6 82.6 0 0 0 512 466.51m0 52.07A134.58 134.58 0 1 1 646.58 384 134.58 134.58 0 0 1 512 518.58z"  horiz-adv-x="1024" />

    
    <glyph glyph-name="genjin11" unicode="&#59314;" d="M512 864C247.04 864 32 648.96 32 384s215.04-480 480-480 480 215.04 480 480S776.96 864 512 864z m-1.44-473.28c-2.4-0.96-4.8-0.96-7.68-0.96H502.4c-130.56 0-236.16-106.08-236.16-236.64 0-13.44-11.04-24.48-24.48-24.48s-24.48 11.04-24.48 24.48c0 124.32 80.64 234.72 199.2 272.16-36.48 29.28-57.6 73.92-57.6 120.96 0 85.92 69.6 155.52 155.52 155.52s155.52-69.6 155.52-155.52-69.6-155.52-155.52-155.52h-3.84z m154.08-251.52c-2.88-2.88-6.72-5.76-10.56-7.68-2.4-1.92-4.8-2.88-7.68-3.84l-98.4-30.24c-2.4-0.96-4.8-0.96-7.2-0.96s-4.8 0.48-7.2 0.96c-12.96 3.84-20.16 17.76-16.32 30.72l30.24 98.4c0.96 2.88 2.4 5.28 3.84 7.68 1.92 3.84 4.8 7.2 7.68 10.56l201.12 201.6c19.2 19.2 49.92 19.2 69.12 0l35.52-35.52c19.2-19.2 19.2-49.92 0-69.12L664.64 139.20000000000005zM795.68 410.4l-191.04-190.56 36-36 190.56 191.04-35.52 35.52zM514.4 652.3199999999999c-59.04 0-106.56-47.52-106.56-106.56 0-59.04 47.52-106.56 106.56-106.56 59.04 0 106.56 47.52 106.56 106.56 0 59.04-47.52 106.56-106.56 106.56z"  horiz-adv-x="1024" />

    
    <glyph glyph-name="dianhua8" unicode="&#59308;" d="M683.991 219.986c-14.334 10.751-24.37 15.331-33.589 15.331-14.912 0-33.192-12.752-59.715-34.774-12.261-11.004-26.147-16.769-40.857-16.769-30.706 0-53.545 25.837-58.638 32.101-10.223 8.995-98.296 86.447-135.303 115.448-12.853 10.129-19.984 23.265-20.642 37.996-1.445 32.057 27.722 60.625 31.053 63.775l2.146 2.03 2.774 1.026c0.643 0.253 18.417 7.355 23.402 25.764 5.245 19.334-5.036 46.016-29.716 77.149-19.551 24.587-38.473 37.592-54.715 37.592-26.581 0-43.379-34.463-43.545-34.81l-0.795-1.655-1.207-1.452c-95.5-113.613 96.88-300.539 98.838-302.417 1.474-1.387 155.901-146.068 266.848-146.068 15.642 0 29.716 2.998 41.84 8.908l1.062 0.462c39.066 15.303 60.965 32.664 63.327 50.207 2.471 18.417-15.714 42.664-52.569 70.155zM515.858 512.237c0.773 0 1.308 0.029 1.503 0.051 2.977 0.173 5.303 0.238 7.601 0.238 81.411 0 122.702-79.244 124.92-95.435 0.448-2.876 0.412-6.719 0.354-12.044-0.108-11.249-0.39-41.118 10.397-43.986 0.961-0.253 1.857-0.383 2.637-0.383 6.055 0 10.498 10.303 12.059 15.093-5.859 121.662-128.143 159.413-129.385 159.781-7.153 2.175-14.616 3.309-21.668 3.309-13.764 0-22.166-4.436-22.715-7.507-0.708-4.032-1.445-11.387 1.604-15.014 2.55-3.027 8.229-4.104 12.694-4.104zM627.203 651.29c-8.908 2.666-18.352 4.075-27.267 4.075-16.639 0-30.063-5.13-31.234-11.943-1.199-6.77-1.712-15.823 2.579-20.945 4.826-5.758 15.05-6.206 18.07-6.206 1.098 0 1.85 0.051 2.066 0.072 3.519 0.202 6.394 0.282 9.212 0.282 102.819 0 145.743-98.715 147.816-112.016 0.289-2.139 0.549-5.072 0.86-8.771 4.14-49.014 12.514-62.612 18.814-65.379 1.394-0.607 2.702-0.932 3.786-0.932 5.946 0 12.904 12.615 15.837 22.607-6.698 151.125-154.239 197.257-160.54 199.157zM512.744 874.34c-276.992 0-501.545-224.546-501.545-501.545 0-276.978 224.553-501.517 501.545-501.517 276.992 0 501.545 224.539 501.545 501.517 0.007 276.999-224.546 501.545-501.545 501.545zM473.093 536.376c3.432 19.377 23.041 31.393 51.175 31.393 9.862 0 20.237-1.568 29.991-4.537 5.831-1.734 144.854-44.701 150.042-188.659l0.072-1.936-0.448-1.886c-3.403-14.472-15.801-38.972-40.655-38.972-3.295 0-6.676 0.455-10.064 1.358-32.484 8.627-32.072 51.558-31.877 72.185 0.029 2.941 0.058 6.604-0.072 7.702-2.139 8.706-34.42 73.883-101.446 70.465-0.672-0.058-2.066-0.152-3.967-0.152-8.475 0-24.276 1.871-34.817 14.428-8.063 9.602-10.729 22.585-7.933 38.61zM765.193 145.995c-3.938-29.29-30.403-53.183-80.891-73.059-15.974-7.68-34.131-11.574-53.978-11.574-122.435 0-280.121 147.744-286.768 154.037-8.822 8.453-212.538 206.368-102.133 340.608 4.812 9.262 28.084 49.549 68.768 49.549 25.728 0 51.753-16.321 77.351-48.523 31.263-39.427 42.974-74.15 34.832-103.209-7.492-26.74-29.471-39.412-37.859-43.372-7.167-7.42-21.097-25.049-20.396-39.875 0.188-3.988 1.394-10.036 9.631-16.538 39.745-31.147 133.554-113.844 137.528-117.349l1.994-2.168c4.61-6.047 20.23-21.856 36.551-21.856 7.471 0 14.667 3.186 21.986 9.754 32.78 27.238 54.823 41.797 78.586 41.797 15.974 0 31.198-6.307 50.9-21.09 47.056-35.092 67.973-66.875 63.898-97.133zM816.303 447.053c-1.163-4.754-12.29-46.435-44.405-46.435-5.065 0-10.238 1.127-15.368 3.352-26.003 11.452-32.671 49.751-36.024 89.424-0.26 3.049-0.455 5.477-0.665 7.023-2.406 10.744-41.009 91.794-126.105 87.119-0.094-0.014-1.828-0.166-4.393-0.166-9.84 0-28.149 2.146-40.214 16.538-9.197 10.975-12.196 25.945-8.894 44.492 3.793 22.094 26.675 35.865 59.7 35.865 11.676 0 23.98-1.828 35.569-5.289 7.174-2.16 175.098-54.679 181.218-227.978l0.072-2.001-0.491-1.944z"  horiz-adv-x="1024" />

    
    <glyph glyph-name="dianhua9" unicode="&#59310;" d="M512-128a512 512 0 1 0 512 512 512 512 0 0 0-512-512z m93.44 456.32L576 299.52c-43.264 13.44-96.256 64-156.928 153.6l21.504 23.808a57.728 57.728 0 0 1 1.792 75.136l-59.776 72.96a57.472 57.472 0 0 1-78.72 9.856l-20.352-15.104a113.92 113.92 0 0 1-41.984-123.008A587.648 587.648 0 0 1 358.4 276.864Q448.896 170.496 625.536 128a111.232 111.232 0 0 1 118.784 46.464l15.488 23.168a57.728 57.728 0 0 1-10.368 75.648l-66.304 57.088a57.6 57.6 0 0 1-77.696-2.048zM305.92 588.8l20.352 15.104a19.2 19.2 0 0 0 26.24-3.328l59.776-72.96a19.328 19.328 0 0 0 0-25.6l-41.984-45.056 8.192-12.8c73.728-111.36 139.264-173.312 199.168-184.704l9.856-1.92 44.672 43.136a19.072 19.072 0 0 0 25.6 0.768l66.304-57.216a18.944 18.944 0 0 0 3.456-25.6l-15.36-23.296a73.216 73.216 0 0 0-77.952-30.464C524.8 192 442.368 237.568 387.968 301.696a546.432 546.432 0 0 0-109.824 205.952A75.52 75.52 0 0 0 305.92 588.8z m233.856-98.048a74.624 74.624 0 0 0 17.024 1.92 76.8 76.8 0 0 0 76.8-76.8 75.008 75.008 0 0 0-0.896-12.032 11.008 11.008 0 0 1-1.152-5.248v-0.768a17.792 17.792 0 0 1 19.584-16.384c10.112 0.768 19.584 5.504 19.584 16.128v0.896a111.488 111.488 0 0 1 1.28 17.408 115.2 115.2 0 0 1-115.2 115.2 120.192 120.192 0 0 1-15.232-1.024 20.864 20.864 0 0 1-18.432-20.608c0-10.24 6.528-19.072 16.64-18.304zM710.4 396.8c0-10.368 11.776-15.36 21.76-14.592a16 16 0 0 1 16.64 17.024v7.936 8.192a192 192 0 0 1-192 192h-13.568A21.504 21.504 0 0 1 521.984 588.8a18.176 18.176 0 0 1 17.792-19.584 150.144 150.144 0 0 0 17.024 0.896 153.6 153.6 0 0 0 153.6-153.6 148.992 148.992 0 0 0-1.152-19.712z"  horiz-adv-x="1024" />

    
    <glyph glyph-name="xinfang3" unicode="&#59305;" d="M920.387368 412.712421l-45.365895-46.214737c-12.544-12.773053-32.862316-12.773053-45.392842 0L511.932632 607.770947 194.250105 366.497684c-12.530526-12.773053-32.848842-12.773053-45.392842 0l-45.365895 46.214737c-12.544 12.773053-12.544 33.482105 0 46.241684l220.335158 167.343158 165.416421 125.642105c12.544 12.759579 32.848842 12.759579 45.392842 0l385.751579-292.985263C932.931368 446.194526 932.931368 425.485474 920.387368 412.712421L920.387368 412.712421zM866.330947 642.56l7.653053-42.994526-39.289263 19.873684c-1.886316 0.956632-3.988211 1.441684-6.063158 1.441684-2.074947 0-4.149895-0.485053-6.036211-1.441684l-39.302737-19.873684 7.666526 42.994526c0.633263 3.584-0.619789 7.221895-3.395368 9.835789L754.526316 683.358316l45.069474 6.319158c4.136421 0.565895 7.666526 2.991158 9.445053 6.440421L828.631579 734.315789l19.604211-38.211368c1.765053-3.449263 5.322105-5.874526 9.431579-6.440421L902.736842 683.358316l-33.010526-30.962526C866.937263 649.795368 865.670737 646.144 866.330947 642.56L866.330947 642.56zM717.891368 719.683368 722.755368 693.894737l-25.007158 11.924211c-1.212632 0.565895-2.546526 0.848842-3.853474 0.848842-1.333895 0-2.654316-0.269474-3.853474-0.848842L665.034105 693.894737l4.877474 25.788632c0.404211 2.155789-0.377263 4.338526-2.155789 5.888l-21.018947 18.607158 28.685474 3.772632c2.627368 0.336842 4.877474 1.805474 5.995789 3.880421L693.894737 774.736842l12.463158-22.905263c1.118316-2.074947 3.395368-3.543579 5.995789-3.880421L741.052632 744.178526l-21.018947-18.607158C718.268632 724.021895 717.460211 721.839158 717.891368 719.683368L717.891368 719.683368zM188.631579 707.368421c0 14.874947 12.058947 26.960842 26.947368 26.960842l80.842105 0C311.309474 734.315789 323.368421 722.243368 323.368421 707.368421l0-46.592L188.631579 551.976421 188.631579 707.368421 188.631579 707.368421zM197.766737 339.482947l291.557053 224.431158c12.368842 12.368842 32.458105 12.368842 44.853895 0l291.557053-224.431158c7.909053-7.909053 10.698105-18.917053 8.515368-29.116632C834.923789 308.048842 835.368421 305.677474 835.368421 303.157895l0-296.407579c0-14.901895-12.058947-26.947368-26.960842-26.947368L215.592421-20.197053c-14.901895 0-26.947368 12.058947-26.947368 26.947368L188.645053 303.157895c0 2.223158 0.336842 4.338526 0.848842 6.4C186.960842 319.959579 189.655579 331.358316 197.766737 339.482947L197.766737 339.482947zM417.684211 60.631579C417.684211 45.756632 429.743158 33.684211 444.631579 33.684211L579.368421 33.684211c14.901895 0 26.947368 12.072421 26.947368 26.960842L606.315789 276.210526C606.315789 291.098947 594.256842 303.157895 579.368421 303.157895L444.631579 303.157895c-14.901895 0-26.947368-12.058947-26.947368-26.960842L417.684211 60.631579 417.684211 60.631579z"  horiz-adv-x="1024" />

    
    <glyph glyph-name="er" unicode="&#59307;" d="M827.076085 668.759149V762.820085c0 19.172766 14.069106 34.717957 31.422638 34.717958s31.422638-15.545191 31.422639-34.717958v-140.059234c0-1.187404-0.054468-2.363915-0.157958-3.524085L1037.07234 502.865702c30.665532-23.513872 36.47183-67.431489 12.957958-98.102468a69.969702 69.969702 0 0 0-55.530213-27.397447h-62.414979l-0.174297-417.759319c0-40.497021-32.768-83.880851-73.265022-83.880851H209.228255c-40.497021 0-73.324936 32.827915-73.324936 73.324936V378.553191H73.166979C34.527319 379.092426 3.638468 410.847319 4.177702 449.492426a69.975149 69.975149 0 0 0 27.441021 54.593361L514.728851 885.335149a31.422638 31.422638 0 0 0 38.214809-0.01634l274.132425-216.55966zM533.803574 820.795915l-463.991829-366.624681a7.124426 7.124426 0 0 1 4.226723-12.778213l93.892085-0.435744a31.428085 31.428085 0 0 0 30.986894-31.586043l-0.163404-460.27166c0-5.838979 4.689702-10.528681 10.474212-10.52868h649.417532a10.474213 10.474213 0 0 1 10.474213 10.474212l0.11983 459.74332a31.428085 31.428085 0 0 0 31.422638 31.422638h93.843064a7.124426 7.124426 0 0 1 4.335659 12.772766L533.803574 820.795915zM355.796426 336.65634h355.916255c29.723234 0 42.909957 37.070979 19.766468 55.562894l-105.357617 84.169532c-13.546213 10.822809-33.378043 8.709447-44.293447-4.72783a31.063149 31.063149 0 0 1 4.765958-43.923064l35.807319-28.606638H355.796426c-17.397106 0-31.50434-13.987404-31.504341-31.237447 0-17.255489 14.107234-31.237447 31.504341-31.237447zM711.778043 231.908766H355.861787c-29.723234 0-42.909957-37.070979-19.766468-55.562894l105.357617-84.169532c13.546213-10.822809 33.378043-8.709447 44.293447 4.72783a31.063149 31.063149 0 0 1-4.765957 43.923064l-35.80732 28.606638h266.604937c17.397106 0 31.50434 13.987404 31.50434 31.237447 0 17.250043-14.107234 31.237447-31.50434 31.237447z"  horiz-adv-x="1067" />

    
    <glyph glyph-name="fanhui11" unicode="&#59304;" d="M538.622846-54.291255c257.534448 171.658591 308.738643 462.119963-75.504648 453.027887l0-225.514173L121.893676 514.470517 463.118198 855.718575l0-220.701564c218.259956 5.67321 470.02705-96.270601 470.02705-280.69596C933.146271 82.880895 768.337691 21.237953 538.622846-54.291255"  horiz-adv-x="1024" />

    
    <glyph glyph-name="shanchu2" unicode="&#59448;" d="M680.453 832H343.547a32.67 32.67 0 0 1-30.993-22.338L277.333 704H96c-17.673 0-32-14.327-32-32s14.327-32 32-32h832c17.673 0 32 14.327 32 32s-14.327 32-32 32H746.667l-35.22 105.662A32.672 32.672 0 0 1 680.453 832zM344.795 704l21.333 64h291.743l21.333-64H344.795zM800 576c-17.673 0-32-14.327-32-32v-476.831C768 30.073 737.927 0 700.831 0H323.169C286.073 0 256 30.073 256 67.169V544c0 17.673-14.327 32-32 32s-32-14.327-32-32v-488.293C192-10.405 245.595-64 311.707-64h400.585C778.405-64 832-10.405 832 55.707V544c0 17.673-14.327 32-32 32zM352 576c-17.673 0-32-14.327-32-32v-448c0-17.673 14.327-32 32-32 17.673 0 32 14.327 32 32V544c0 17.673-14.327 32-32 32zM512 576c-17.673 0-32-14.327-32-32v-448c0-17.673 14.327-32 32-32 17.673 0 32 14.327 32 32V544c0 17.673-14.327 32-32 32zM672 576c-17.673 0-32-14.327-32-32v-448c0-17.673 14.327-32 32-32 17.673 0 32 14.327 32 32V544c0 17.673-14.327 32-32 32z"  horiz-adv-x="1024" />

    
    <glyph glyph-name="daoru" unicode="&#59302;" d="M919.251863 513.973279q0.284437 7.39535 0.284436 14.733812a367.264465 367.264465 0 1 1-734.585817 0q0-7.281576 0.284437-14.733812a241.259076 241.259076 0 0 1 55.977112-475.919225h65.249743v75.091248H241.268918a166.167829 166.167829 0 0 0-12.628983 331.880558l39.821116 3.015028-5.68873 39.821116a296.724202 296.724202 0 0 0-2.901253 41.015749 292.230105 292.230105 0 0 0 584.403322 0 296.382878 296.382878 0 0 0-2.901253-41.015749l-5.688731-39.821116 39.821116-3.015028a166.167829 166.167829 0 0 0-12.628982-331.880558h-64.453321v-75.091248h64.794645a241.259076 241.259076 0 0 1 55.977112 475.862337zM584.6976 339.613677a42.665482 42.665482 0 0 1-64.908419 0l-130.84081-150.92203a45.509847 45.509847 0 0 1-11.377461-30.264048 44.485875 44.485875 0 0 1 43.575678-45.22541 42.836143 42.836143 0 0 1 32.425766 15.018249l54.782478 63.144913v-274.196828a43.575678 43.575678 0 1 1 87.151357 0v274.424377l54.782478-63.144912a42.665482 42.665482 0 0 1 32.368879-15.01825 44.485875 44.485875 0 0 1 43.689453 45.22541 46.306269 46.306269 0 0 1-11.377462 30.264049z"  horiz-adv-x="1104" />

    
    <glyph glyph-name="xiangqing1" unicode="&#59303;" d="M745.244444 896h-31.857777v-170.666667a28.444444 28.444444 0 0 1 27.306666-28.444444h205.937778v32.995555zM659.911111 725.333333V896H184.888889a113.777778 113.777778 0 0 1-107.52-113.777778v-796.444444a113.777778 113.777778 0 0 1 107.52-113.777778h654.222222a113.777778 113.777778 0 0 1 107.52 113.777778V640H739.555556A83.626667 83.626667 0 0 0 659.911111 725.333333z m145.635556-658.204444H217.884444a27.306667 27.306667 0 0 0-26.737777 28.444444 27.875556 27.875556 0 0 0 26.737777 28.444445h587.662223a27.875556 27.875556 0 0 0 26.737777-28.444445 27.306667 27.306667 0 0 0-26.737777-28.444444z m0 150.755555H217.884444a28.444444 28.444444 0 0 0 0 56.888889h587.662223a28.444444 28.444444 0 0 0 0-56.888889z m0 151.324445H217.884444a27.306667 27.306667 0 0 0-26.737777 28.444444 27.875556 27.875556 0 0 0 26.737777 28.444445h587.662223a27.875556 27.875556 0 0 0 26.737777-28.444445 27.306667 27.306667 0 0 0-26.737777-28.444444z m26.737777 179.2a27.306667 27.306667 0 0 0-26.737777-28.444445H217.884444a28.444444 28.444444 0 0 0 0 56.888889h587.662223a27.306667 27.306667 0 0 0 26.737777-28.444444z"  horiz-adv-x="1024" />

    
    <glyph glyph-name="tianjia" unicode="&#59301;" d="M451.3185184 748.08888853h121.3629632v-728.17777706H451.3185184zM876.08888853 444.6814816v-121.3629632H147.91111147V444.6814816z"  horiz-adv-x="1024" />

    
    <glyph glyph-name="shuaxin" unicode="&#59299;" d="M844.405 328.443l-63.402 8.73a332.412 332.412 0 0 1 2.756 60.013l63.938 2.841a396.812 396.812 0 0 0-3.292-71.584zM456.15-9.575000000000045c-52.897 0-104.229 10.367-152.57 30.813-46.675 19.742-88.587 47.998-124.572 83.982s-64.24 77.896-83.982 124.572c-20.446 48.341-30.813 99.672-30.813 152.569 0 52.897 10.367 104.229 30.813 152.57 19.742 46.675 47.998 88.587 83.982 124.572s77.896 64.24 124.572 83.982c48.341 20.446 99.673 30.813 152.57 30.813 101.61 0 197.945-38.722 271.257-109.033 73.085-70.093 115.805-164.291 120.289-265.24l-63.938-2.84C775.96 572.765 632.057 710.3 456.15 710.3c-180.825 0-327.938-147.112-327.938-327.938S275.325 54.424999999999955 456.15 54.424999999999955c69.765 0 136.365 21.606 192.597 62.482l37.631-51.768c-67.241-48.878-146.854-74.714-230.228-74.714zM803.687 268.601c-8.189 0-16.379 3.124-22.627 9.373L663.591 395.441c-12.497 12.497-12.497 32.758 0 45.255 12.496 12.497 32.758 12.497 45.254 0l117.469-117.468c12.497-12.497 12.497-32.759 0-45.255-6.249-6.248-14.438-9.372-22.627-9.372zM810.436 266.52700000000004c-8.19 0-16.378 3.123-22.627 9.373-12.497 12.496-12.497 32.758 0 45.255l117.469 117.468c12.495 12.497 32.757 12.497 45.254 0s12.497-32.758 0-45.255L833.063 275.9c-6.248-6.248-14.439-9.373-22.627-9.373z"  horiz-adv-x="1024" />

    
    <glyph glyph-name="shuaxin1" unicode="&#59300;" d="M897.6 505.6c-17.6 0-32 14.4-32 32V710.4c0 17.6 14.4 32 32 32s32-14.4 32-32v-172.8c0-17.6-14.4-32-32-32zM512-64C265.6-64 64 137.6 64 384S265.6 832 512 832c184 0 347.2-110.4 416-281.6 6.4-16-1.6-35.2-17.6-41.6-16-6.4-35.2 1.6-41.6 17.6C809.6 673.6 670.4 768 512 768c-211.2 0-384-172.8-384-384s172.8-384 384-384c158.4 0 297.6 94.4 356.8 241.6 6.4 16 25.6 24 41.6 17.6 16-6.4 24-25.6 17.6-41.6C859.2 46.4 696-64 512-64z"  horiz-adv-x="1024" />

    
    <glyph glyph-name="icon-refresh" unicode="&#59298;" d="M55.935 631.511c0 0 85.897 132.548 221.814 203.673 135.916 71.122 303.369 50.647 413.188-18.32 109.819-68.97 146.792-127.16 146.792-127.16l94.595 53.88c0 0 19.576 9.697 19.576-12.932v-338.38c0 0 0-30.174-22.838-19.395-19.211 9.063-226.959 127.198-292.425 164.467-35.95 16.035-4.365 29.062-4.365 29.062l91.284 52.174c0 0-52.069 65.21-128.279 99.745-81.576 42.502-157.948 47.542-251.498 12.224-61.003-23.025-132.823-81.988-184.554-169.083l-103.292 70.045zM904.057 184.302c0 0-85.897-132.55-221.816-203.671-135.917-71.123-303.366-50.652-413.187 18.315-109.826 68.972-146.791 127.165-146.791 127.165l-94.6-53.88c0 0-19.572-9.703-19.572 12.932l0 338.377c0 0 0 30.171 22.832 19.397 19.212-9.068 226.965-127.198 292.431-164.471 35.95-16.035 4.366-29.058 4.366-29.058l-91.285-52.176c0 0 52.071-65.207 128.28-99.745 81.573-42.499 157.942-47.541 251.497-12.222 60.999 23.026 132.82 81.983 184.547 169.083l103.3-70.047zM904.057 184.302z"  horiz-adv-x="1024" />

    
    <glyph glyph-name="sanjiaotop" unicode="&#59297;" d="M511.99766983 426.92183385L96.68347221-128.25516711l830.63305558 0L511.99766983 426.92183385"  horiz-adv-x="1024" />

    
    <glyph glyph-name="ehl_tupianxiazai" unicode="&#59295;" d="M931.2-115.2zM656 505.6a92.8 92.8 0 0 1 44.8-80 89.6 89.6 0 0 1 89.6 0 92.8 92.8 0 0 1 44.8 80 89.6 89.6 0 0 1-179.2 0zM640 176a204.8 204.8 0 0 0 9.6 64l-288 185.6L86.4 128V553.6A83.2 83.2 0 0 0 169.6 640h640a86.4 86.4 0 0 0 83.2-86.4V384a176 176 0 0 0 86.4-38.4V640A83.2 83.2 0 0 1 896 723.2H86.4A86.4 86.4 0 0 1 0 640v-576a86.4 86.4 0 0 1 86.4-83.2h688a211.2 211.2 0 0 0-134.4 195.2zM972.8 294.4a163.2 163.2 0 0 1-121.6 51.2 172.8 172.8 0 1 1 172.8-172.8 169.6 169.6 0 0 1-51.2 121.6z m-38.4-144l-73.6-67.2a19.2 19.2 0 0 0-19.2 0L768 150.4c-3.2 3.2-6.4 6.4-3.2 9.6s6.4 6.4 9.6 6.4h54.4v76.8a22.4 22.4 0 0 0 22.4 22.4l16-6.4c3.2-6.4 6.4-9.6 6.4-16v-73.6h51.2c6.4 0 9.6-3.2 12.8-9.6s0-6.4-3.2-9.6z"  horiz-adv-x="1024" />

    
    <glyph glyph-name="tupianxiazai" unicode="&#59296;" d="M826.368-80.384c7.168-7.168 14.848-10.752 25.6-10.752s18.432 3.584 25.6 10.752l102.4 102.4c14.848 14.848 14.848 36.352 0 51.2-14.848 14.848-36.352 14.848-51.2 0l-40.448-40.448v226.816c0 18.432-14.848 36.352-36.352 36.352-22.016 0-36.352-14.848-36.352-36.352v-226.816l-44.032 44.032c-14.848 14.848-36.352 14.848-51.2 0-14.848-14.848-14.848-36.352 0-51.2l105.984-105.984zM182.784 599.552c0-58.368 47.616-105.984 105.984-105.984 44.032 0 87.552 25.6 105.984 66.048 18.432 40.448 7.168 87.552-22.016 120.832-32.768 32.768-83.968 40.448-124.416 25.6-39.936-18.432-65.536-62.464-65.536-106.496z m73.216 0c0 10.752 3.584 18.432 10.752 25.6 3.584 10.752 14.848 14.848 25.6 14.848 18.432 0 36.352-14.848 36.352-32.768 0-18.432-14.848-36.352-32.768-40.448-21.504 0-39.936 14.848-39.936 32.768zM950.784 859.648H73.216C32.768 859.648 0 826.368 0 786.432v-731.648c0-40.448 32.768-73.216 73.216-73.216h585.216c19.968 0 36.352 16.384 36.352 36.352 0 19.968-16.384 36.352-36.352 36.352H109.568c-22.016 0-36.352 18.432-36.352 36.352V749.568c0 18.432 14.848 36.352 36.352 36.352h804.352c22.016 0 36.352-18.432 36.352-36.352v-438.784c0-19.968 16.384-36.352 36.352-36.352 19.968 0 36.352 16.384 36.352 36.352V786.432c1.024 39.936-31.744 73.216-72.192 73.216z m0 0M135.168 153.6c14.848-14.848 36.352-14.848 51.2 0l153.6 153.6 128-128c3.584-3.584 3.584-3.584 7.168-3.584 14.848-7.168 29.184-7.168 44.032 3.584l361.984 361.984c14.848 14.848 14.848 36.352 0 51.2-14.848 14.848-36.352 14.848-51.2 0L493.568 256l-128 131.584-3.584 3.584c-14.848 10.752-32.768 10.752-47.616-3.584L131.584 204.8c-10.752-14.848-10.752-36.352 3.584-51.2z m0 0"  horiz-adv-x="1024" />

    
    <glyph glyph-name="xiaoxi4" unicode="&#59294;" d="M717.6 462.2c35 0 63.4-28.4 63.4-63.4s-28.4-63.4-63.4-63.4-63.4 28.4-63.4 63.4c-0.1 35 28.3 63.4 63.4 63.4zM514.6 462.2c35 0 63.4-28.4 63.4-63.4s-28.4-63.4-63.4-63.4-63.4 28.4-63.4 63.4c-0.1 35 28.3 63.4 63.4 63.4zM311.6 462.2c35 0 63.4-28.4 63.4-63.4s-28.4-63.4-63.4-63.4-63.4 28.4-63.4 63.4 28.4 63.4 63.4 63.4zM95.9-96c-10.2 0-20.5 3-29.4 9.4-22.8 16.2-28.1 47.9-11.9 70.7 22.6 31.8 37.3 71.5 50.3 106.4 15.2 40.8 14.4 63.2-3.3 100-11.1 23-20 44.6-27.4 66-16.3 47.7-24.6 95.5-24.6 142.1C49.6 655 258.2 863.5 514.5 863.5s464.9-208.6 464.9-464.9c0-101.9-34.1-202.5-96.1-283.1-54-70.2-128.5-125.2-209.8-154.8-44.4-16.2-94.4-24.6-157.3-26.6-15.1-0.5-30.2-0.6-45.2-0.5-71.2 0.4-127-2.6-181.4-10-36.4-4.9-73.2-8.4-108.8-11.7-15.8-1.5-31.6-2.9-47.4-4.5-1.7-0.2-5.4-0.4-10.3-0.4-3 0-7 0-10.5-0.2-5.3-1.8-11-2.8-16.7-2.8z m41.3 21.3c0-0.1 0-0.1 0 0 0-0.1 0-0.1 0 0z m377.4 836.9c-200.4 0-363.4-163-363.4-363.4 0-35.4 6.4-72.2 19.1-109.3 6-17.6 13.5-35.5 22.7-54.8 29.9-62.1 31.9-112.4 7-179.4-4.8-12.8-9.9-26.6-15.7-40.9 30.5 2.9 61.7 5.9 91.8 10 59.2 8 119.3 11.3 195.6 10.9 13.6-0.1 27.6 0 41.4 0.4 51.8 1.6 91.8 8.2 125.8 20.5 63.4 23.1 121.7 66.1 164.1 121.3 48.4 63 75.1 141.6 75.1 221.3C878 599.2 715 762.2 514.6 762.2z"  horiz-adv-x="1024" />

    
    <glyph glyph-name="qian4" unicode="&#59291;" d="M228.677632 759.077888 250.308608 772.740096 504.19712 405.001216 520.136704 405.001216 774.024192 772.740096 795.656192 758.508544 551.44448 405.001216 823.703552 405.001216 823.703552 378.815488 533.228544 378.815488 526.190592 367.427584 526.190592 238.780416 823.703552 238.780416 823.703552 213.732352 526.190592 213.732352 526.190592-5.434368 499.073024-5.434368 499.073024 212.589568 200.948736 212.589568 200.948736 239.915008 499.073024 239.915008 499.073024 366.288896 490.677248 379.385856 200.948736 379.385856 200.948736 405.00224 472.887296 405.00224Z"  horiz-adv-x="1024" />

    
    <glyph glyph-name="qian5" unicode="&#59292;" d="M512 896C229.232 896 0 666.768 0 384s229.232-512 512-512 512 229.232 512 512S794.768 896 512 896z m163.648-518.656v-48.528h-118.304v-43.2h118.304v-48.512h-118.304v-112.992h-97.04v112.992h-116.976v48.512h116.976v43.2h-116.976v48.528H438.4l-113.6 225.984h101.024l43.872-107.68c12.544-33.248 25.168-66.464 39.104-99.696h3.328q19.936 50.848 39.872 99.696l43.872 107.68h97.728L579.2 377.344z"  horiz-adv-x="1024" />

    
    <glyph glyph-name="saoma1" unicode="&#59290;" d="M192 480C172.8 480 160 492.8 160 512L160 640c0 51.2 44.8 96 96 96l128 0c19.2 0 32-12.8 32-32S403.2 672 384 672L256 672C236.8 672 224 659.2 224 640l0-128C224 492.8 211.2 480 192 480zM384 32 256 32c-51.2 0-96 44.8-96 96l0 128c0 19.2 12.8 32 32 32S224 275.2 224 256l0-128c0-19.2 12.8-32 32-32l128 0c19.2 0 32-12.8 32-32S403.2 32 384 32zM768 32l-128 0c-19.2 0-32 12.8-32 32s12.8 32 32 32l128 0c19.2 0 32 12.8 32 32l0 128c0 19.2 12.8 32 32 32s32-12.8 32-32l0-128C864 76.8 819.2 32 768 32zM832 480c-19.2 0-32 12.8-32 32L800 640c0 19.2-12.8 32-32 32l-128 0C620.8 672 608 684.8 608 704S620.8 736 640 736l128 0c51.2 0 96-44.8 96-96l0-128C864 492.8 851.2 480 832 480zM832 352 192 352C172.8 352 160 364.8 160 384S172.8 416 192 416l640 0c19.2 0 32-12.8 32-32S851.2 352 832 352z"  horiz-adv-x="1024" />

    
    <glyph glyph-name="saoma" unicode="&#59289;" d="M15.001592-112.997896A51.046374 51.046374 0 0 1 51.199974-127.999488h153.599924a51.199974 51.199974 0 0 1 0 102.399949H102.399949v102.399949a51.199974 51.199974 0 0 1-102.399949 0v-153.599924c0-14.131193 5.734397-26.931187 15.001592-36.198382zM921.599539-25.599539v102.399949a51.199974 51.199974 0 0 0 102.399949 0v-153.599924a51.046374 51.046374 0 0 0-51.199974-51.199974h-153.599924a51.199974 51.199974 0 0 0 0 102.399949h102.399949zM1008.997896 880.998408A51.046374 51.046374 0 0 0 1023.999488 844.800026v-153.599924a51.199974 51.199974 0 0 0-102.399949 0V793.600051h-102.399949a51.199974 51.199974 0 0 0 0 102.399949h153.599924c14.131193 0 26.931187-5.734397 36.198382-15.001592zM102.399949 793.600051v-102.399949a51.199974 51.199974 0 1 0-102.399949 0V844.800026a51.046374 51.046374 0 0 0 51.199974 51.199974h153.599924a51.199974 51.199974 0 1 0 0-102.399949H102.399949z m-51.199975-460.799769a51.199974 51.199974 0 0 0 0 102.399948h921.59954a51.199974 51.199974 0 0 0 0-102.399948H51.199974z"  horiz-adv-x="1024" />

    
    <glyph glyph-name="quanjing4" unicode="&#59293;" d="M316.784 867.126c0 18.753-17.604 32.513-35.808 28C125.462 856.592 28.06 791.395 28.06 709.279c0-82.115 97.402-147.33 252.916-185.865 91.706-23.025 200.724-35.481 314.906-35.481s223.2 12.473 315.01 35.532c155.359 38.484 252.795 103.7 252.795 185.814S1066.302 856.591 910.771 895.144c-18.204 4.495-35.807-9.282-35.807-28.035v-269.456c0-13.726-9.643-25.599-23.111-28.293-77.071-15.407-164.694-23.694-255.988-23.694-91.329 0-178.968 8.253-255.988 23.66-13.45 2.694-23.11 14.567-23.11 28.292V867.126z m615.931-37.78c109.91-32.65 173.238-78.907 173.238-120.068 0-41.194-63.328-87.416-173.238-120.1V829.38v-0.034zM85.811 709.278c0 41.195 63.328 87.417 173.238 120.102v-240.203c-109.91 32.72-173.238 78.907-173.238 120.101z m0 0M1105.953 709.278v-615.931c0-82.218-227.867-163.613-510.07-163.613-282.222 0-510.072 81.378-510.072 163.613V709.278H28.077v-615.931C28.077-36.93 283.001-128 595.899-128c312.899 0 567.806 91.088 567.806 221.347V709.278h-57.752z m0 0M510.078 66.633l90.505 135.732c11.564 17.346 36.631 18.547 49.79 2.385l231.11-283.629 44.73 36.494L645.759 301.86c-13.177 16.162-38.227 14.961-49.808-2.385l-95.43-143.16c-10.74-16.111-33.439-18.53-47.336-5.062l-87.829 85.135c-13.606 13.194-35.756 11.186-46.77-4.238L148.932-5.36l46.96-33.576 130.67 182.931c11.015 15.425 33.165 17.432 46.771 4.238l89.373-86.661c13.914-13.469 36.63-11.05 47.371 5.06z m499.64 296.17a105.881 105.881 0 0 0-52.983-91.672 105.864 105.864 0 0 0-105.877 0.035 105.878 105.878 0 0 0-52.914 91.706c0.017 58.49 47.44 105.86 105.93 105.843 58.472 0 105.86-47.423 105.843-105.912z m-57.752 0c0 26.594-21.567 48.126-48.16 48.126-27.727 0-49.98-23.47-47.99-51.626 1.664-23.729 20.932-42.945 44.66-44.54 28.121-1.888 51.507 20.348 51.49 48.04z m0 0"  horiz-adv-x="1355" />

    
    <glyph glyph-name="weixin" unicode="&#59288;" d="M705.6662337 542.00676602C519.23261403 542.00676602 368.10632446 410.17166616 368.10632446 247.53961116000005c0-27.32080628 4.59656047-53.66484345 12.58308427-78.77355499-1.82425994-0.01436425-3.57669862-0.22982802-5.40095854-0.22982803-50.60525788 0-98.79732153 8.84837891-142.65138122 24.86451928L123.9140497 125.44347377999998l25.02252603 110.96384251C63.82838584 294.28088539 9.00003804 383.81326472 9.00003804 484.5497602c0 174.5256552 163.99665889 316.01353206 366.28841215 316.01353206 180.04152777 0 329.42974291-112.17043963 360.18360528-259.86367312A392.7617276 392.7617276 0 0 1 705.6662337 542.00676602zM253.19231281 656.92077769a57.45700584 57.45700584 0 1 1 0-114.91401167 57.45700584 57.45700584 0 0 1 0 114.91401167z m244.19227477 0a57.45700584 57.45700584 0 1 1 0-114.91401167 57.45700584 57.45700584 0 0 1 0 114.91401167zM890.26122919 47.790330400000016L913.94787983-46.9275437l-91.37100353 62.39830832A360.44216181 360.44216181 0 0 0 705.6662337-3.834789330000035C535.1051119-3.834789330000035 396.83482739 111.92671314999996 396.83482739 254.72173689s138.27028453 258.55652622 308.83140631 258.55652622S1014.49764004 397.51676062 1014.49764004 254.72173689c0-84.76344785-48.95336898-159.77356894-124.23641085-206.93140649zM612.29859924 384a43.09275437 43.09275437 0 1 1 0-86.18550874 43.09275437 43.09275437 0 0 1 0 86.18550874z m201.09952039 0a43.09275437 43.09275437 0 1 1 0-86.18550874 43.09275437 43.09275437 0 0 1 0 86.18550874z"  horiz-adv-x="1024" />

    
    </font>
</defs>
</svg>
